<?xml version="1.0" standalone="no"?>
<!DOCTYPE svg PUBLIC "-//W3C//DTD SVG 1.1//EN" "http://www.w3.org/Graphics/SVG/1.1/DTD/svg11.dtd" >
<svg>
<metadata>
Created by FontForge 20120731 at Tue May 14 08:26:49 2019
 By www-data
Copyright (c) 2006 by Nevisa. All rights reserved.
</metadata>
<defs>
<font id="AIranianSans" horiz-adv-x="0" >
  <font-face 
    font-family="A Iranian Sans"
    font-weight="400"
    font-stretch="normal"
    units-per-em="2048"
    panose-1="1 0 5 0 0 0 0 2 0 2"
    ascent="1556"
    descent="-492"
    bbox="-258 -1114 3371 1841"
    underline-thickness="143"
    underline-position="-142"
    unicode-range="U+000D-FEFC"
  />
<missing-glyph horiz-adv-x="1229" 
d="M102 -362v1806h1024v-1806h-1024zM1012 1329h-795v-1577h795v1577z" />
    <glyph glyph-name="uniFEFB" unicode="&#xfedf;&#xfe8e;" horiz-adv-x="1288" arabic-form="isolated" 
d="M957 1556h154v-1053q0 -71 -23 -129t-63.5 -105.5t-95.5 -86t-119 -70t-134.5 -57.5t-141.5 -48l-154 -49l-44 185q43 13 71 21.5t47 14.5t33 10.5t29 10.5q-5 84 -13.5 180t-24.5 197.5t-41 205.5t-63.5 204.5t-92.5 194.5t-127 176l113 129q77 -86 134.5 -185.5
t100 -206.5t71.5 -218t48 -219.5t29.5 -211.5t17.5 -194q61 24 114 50.5t92 57.5t61 66t22 77v1053z" />
    <glyph glyph-name="uniFEFC" unicode="&#xfee0;&#xfe8e;" horiz-adv-x="1380" arabic-form="final" 
d="M922 1556h154v-1053q0 -64 17.5 -105.5t55 -66t94.5 -34t137 -9.5v-192q-78 0 -141.5 7t-113.5 24t-87 45.5t-62 71.5q-41 -47 -95 -85.5t-117 -69t-133.5 -52t-142.5 -33.5l-222 -38l-24 190q69 12 137 23t138 25q-6 85 -14 180.5t-23.5 195.5t-40.5 203t-63.5 202.5
t-93 194t-129.5 178.5l113 129q77 -87 135 -187t100.5 -207t71 -218t47.5 -220t30 -212t17 -194q55 21 102 47.5t81 58t53 69t19 79.5v1053z" />
    <glyph glyph-name="uni0627_uni064B.fina" unicode="&#xfe8e;&#x64b;" horiz-adv-x="786" arabic-form="final" 
d="M786 96h-121q-112 0 -185.5 21.5t-117 65t-61.5 110.5t-18 159v747h154v-747q0 -42 10.5 -73t36.5 -51t70 -30t111 -10h121v-192zM611 1725l-491 -195v92l491 195v-92zM611 1463l-491 -195v92l491 195v-92z" />
    <glyph glyph-name="uni0627_uni064B.isol" unicode="&#xfe8d;&#x64b;" horiz-adv-x="720" arabic-form="isolated" 
d="M437 96h-154v1103h154v-1103zM611 1725l-491 -195v92l491 195v-92zM611 1463l-491 -195v92l491 195v-92z" />
    <glyph glyph-name="uni0647_uni0654.isol" unicode="&#xfee9;&#x654;" horiz-adv-x="1095" 
d="M437 994q54 -20 116.5 -51.5t124 -72t118 -90t100 -105t69.5 -116.5t26 -126q0 -48 -22.5 -93.5t-61 -85.5t-89 -73.5t-107 -57.5t-115.5 -37.5t-113 -13.5q-77 0 -143.5 25t-115.5 68.5t-76.5 103t-27.5 129.5q0 50 16.5 108.5t43.5 118t61 118t69.5 108t68.5 87
t58 56.5zM467 779q-32 -37 -66 -86t-62.5 -100.5t-46.5 -102.5t-18 -92q0 -29 16 -53.5t44 -42.5t66.5 -28t82.5 -10q57 0 119 13.5t114.5 37t86.5 54t34 64.5q0 49 -34 98.5t-87.5 94.5t-119.5 84.5t-129 68.5zM680 1516q-72 24 -131 24q-41 0 -73 -10t-54 -26.5
t-33.5 -38.5t-11.5 -47q0 -15 12 -26t32.5 -18.5t46.5 -11.5t53 -4q34 0 88 15l40 -107q-54 -38 -104.5 -65.5t-103.5 -46.5t-111.5 -30.5t-128.5 -16.5l-8 130q54 4 98 10.5t82 15.5q-44 24 -71 62.5t-27 92.5q0 51 18.5 96.5t53.5 80t86 55t116 20.5q73 0 163 -30z" />
    <glyph glyph-name="uni0647_uni0654.fina" unicode="&#xfeea;&#x654;" horiz-adv-x="1168" 
d="M1168 96q-60 0 -118.5 5t-110 28.5t-95 72t-74.5 135.5l-28 -127q-65 3 -134.5 7.5t-136 14.5t-125.5 28t-103.5 48t-70.5 74t-26 106q0 86 35.5 163t98 141.5t148.5 115.5t187 87l-33 146l150 42l165 -726q14 -63 41.5 -97.5t63.5 -50.5t78.5 -18.5t87.5 -2.5v-192z
M657 809q-77 -27 -142.5 -62t-113 -76t-74.5 -87.5t-27 -95.5q0 -25 40 -40.5t104 -24.5t144.5 -13.5t161.5 -7.5zM660 1606q-72 24 -131 24q-41 0 -73 -10t-54 -26.5t-33.5 -38.5t-11.5 -47q0 -15 12 -26t32.5 -18.5t46.5 -11.5t53 -4q34 0 88 15l40 -107
q-54 -38 -104.5 -65.5t-103.5 -46.5t-111.5 -30.5t-128.5 -16.5l-8 130q54 4 98 10.5t82 15.5q-44 24 -71 62.5t-27 92.5q0 51 18.5 96.5t53.5 80t86 55t116 20.5q73 0 163 -30z" />
    <glyph glyph-name="uni0647_uni0654.init" unicode="&#xfeeb;&#x654;" horiz-adv-x="1256" 
d="M410 363q44 19 81 43.5t63.5 53.5t41.5 64t15 75q0 56 -5 102t-14.5 79t-23 51t-29.5 18q-32 0 -75.5 -19t-83.5 -56t-68 -90t-28 -120q0 -65 35 -114.5t91 -86.5zM603 278q41 -12 80.5 -21t74 -14.5t62 -8t44.5 -2.5q22 0 43.5 9.5t38.5 25t27.5 35.5t10.5 42
q0 60 -52.5 147.5t-169.5 193.5q3 -42 3 -86q0 -103 -44 -182t-118 -139zM0 288q117 0 227 21q-45 51 -71 114t-26 141q0 71 18.5 132t49 112t70.5 91.5t83 69.5q-27 15 -55.5 30t-58.5 31l70 172q172 -89 306 -180q136 -82 235 -178t163.5 -189.5t95.5 -175.5t31 -135
q0 -59 -24 -114t-62.5 -97t-87.5 -67.5t-100 -25.5q-28 0 -78 7t-112 22t-131 39.5t-134 59.5q-96 -37 -200.5 -54.5t-208.5 -17.5q-36 0 -70 12v180h70zM1083 1606q-72 24 -131 24q-41 0 -73 -10t-54 -26.5t-33.5 -38.5t-11.5 -47q0 -15 12 -26t32.5 -18.5t46.5 -11.5
t53 -4q34 0 88 15l40 -107q-54 -38 -104.5 -65.5t-103.5 -46.5t-111.5 -30.5t-128.5 -16.5l-8 130q54 4 98 10.5t82 15.5q-44 24 -71 62.5t-27 92.5q0 51 18.5 96.5t53.5 80t86 55t116 20.5q73 0 163 -30z" />
    <glyph glyph-name="uni0647_uni0654.medi" unicode="&#xfeec;&#x654;" horiz-adv-x="1090" 
d="M339 310q76 15 139.5 37.5t109 49.5t70.5 56.5t25 58.5q0 57 -23.5 116t-59.5 106.5t-78.5 78t-80.5 30.5q-16 0 -34 -31.5t-33.5 -94t-25.5 -154.5t-10 -213v-20.5t1 -19.5zM756 -422q-82 30 -164 75.5t-154 110t-129 148.5t-90 190q-54 -6 -112 -6h-107q-36 0 -70 12
v180h70h107q20 0 39.5 0.5t39.5 1.5q-2 15 -2 29.5v30.5q0 168 25 296.5t63.5 214.5t83.5 130t85 44q42 0 87 -22t89 -60t84 -89.5t70 -109.5t48 -120t18 -122q0 -55 -33.5 -111.5t-94 -107.5t-145 -93.5t-185.5 -69.5q40 -97 109 -168.5t151 -122.5q-1 17 -1 36v39
q0 53 25.5 118t74 122t119.5 95.5t162 38.5h71v-192h-71q-54 0 -96.5 -18.5t-71.5 -46.5t-44 -59.5t-15 -57.5q0 -54 3 -91.5t13 -64.5zM683 1606q-72 24 -131 24q-41 0 -73 -10t-54 -26.5t-33.5 -38.5t-11.5 -47q0 -15 12 -26t32.5 -18.5t46.5 -11.5t53 -4q34 0 88 15
l40 -107q-54 -38 -104.5 -65.5t-103.5 -46.5t-111.5 -30.5t-128.5 -16.5l-8 130q54 4 98 10.5t82 15.5q-44 24 -71 62.5t-27 92.5q0 51 18.5 96.5t53.5 80t86 55t116 20.5q73 0 163 -30z" />
    <glyph glyph-name="uni0644_uni0622.isol" unicode="&#xfedf;&#xfe82;" horiz-adv-x="1443" arabic-form="isolated" 
d="M1120 1556h154v-1053q0 -71 -23 -129t-63.5 -105.5t-95.5 -86t-119 -70t-134.5 -57.5t-141.5 -48l-154 -49l-44 185q44 15 72 23.5t46.5 14.5t32.5 10t29 9q-10 146 -35 276.5t-69 243t-108.5 206t-152.5 164.5l94 150q98 -79 171 -185.5t124 -233t82.5 -271t45.5 -298.5
q61 24 114 50.5t92 57.5t61 66t22 77v1053zM780 1604q-70 -43 -144 -76q-32 -14 -67 -28t-72 -24.5t-74.5 -17t-73.5 -6.5q-38 0 -73.5 2.5t-64.5 6.5q-33 4 -63 10q-10 -30 -12.5 -69t-2.5 -71h-102q0 28 4 65.5t14 78t26.5 79.5t41.5 69q20 -12 53 -21q28 -8 72 -14
t107 -6q31 0 64 5.5t65.5 15t63.5 21.5t58 24q64 29 125 67z" />
    <glyph glyph-name="uni0644_uni0622.fina" unicode="&#xfee0;&#xfe82;" horiz-adv-x="1574" arabic-form="final" 
d="M1116 1556h154v-1053q0 -64 17.5 -105.5t55 -66t94.5 -34t137 -9.5v-192q-78 0 -141.5 7t-113.5 24t-87 45.5t-62 71.5q-41 -47 -95 -85.5t-117 -69t-133.5 -52t-142.5 -33.5l-222 -38l-24 190q89 15 141.5 24t82 14.5t41.5 7.5t20 4q-9 121 -31.5 246.5t-67.5 245.5
t-118 229.5t-185 199.5l94 152q123 -100 205.5 -222t134.5 -256t79 -274t38 -275q53 21 98 47.5t78 58t51.5 68t18.5 77.5v1053zM780 1604q-70 -43 -144 -76q-32 -14 -67 -28t-72 -24.5t-74.5 -17t-73.5 -6.5q-38 0 -73.5 2.5t-64.5 6.5q-33 4 -63 10q-10 -30 -12.5 -69
t-2.5 -71h-102q0 28 4 65.5t14 78t26.5 79.5t41.5 69q20 -12 53 -21q28 -8 72 -14t107 -6q31 0 64 5.5t65.5 15t63.5 21.5t58 24q64 29 125 67z" />
    <glyph glyph-name="uni0644_uni0623.isol" unicode="&#xfedf;&#xfe84;" horiz-adv-x="1443" arabic-form="isolated" 
d="M1120 1556h154v-1053q0 -71 -23 -129t-63.5 -105.5t-95.5 -86t-119 -70t-134.5 -57.5t-141.5 -48l-154 -49l-44 185q44 15 72 23.5t46.5 14.5t32.5 10t29 9q-10 146 -35 276.5t-69 243t-108.5 206t-152.5 164.5l94 150q98 -79 171 -185.5t124 -233t82.5 -271t45.5 -298.5
q61 24 114 50.5t92 57.5t61 66t22 77v1053zM613 1417q-54 -10 -100 -19.5t-99.5 -27t-122.5 -47t-169 -77.5l-44 118q42 21 77 38t67 31q-38 31 -62 69.5t-24 86.5q0 45 22.5 89t56.5 78t74 55t74 21q39 0 68.5 -8.5t53 -23.5t43 -35t39.5 -43l-76 -84q-12 13 -23.5 25
t-26 20.5t-33.5 13.5t-45 5q-19 0 -41 -10t-40.5 -25.5t-31 -36t-12.5 -41.5q0 -26 37.5 -50.5t93.5 -46.5q63 21 117.5 31.5t107.5 22.5z" />
    <glyph glyph-name="uni0644_uni0623.fina" unicode="&#xfee0;&#xfe84;" horiz-adv-x="1574" arabic-form="final" 
d="M1116 1556h154v-1053q0 -64 17.5 -105.5t55 -66t94.5 -34t137 -9.5v-192q-78 0 -141.5 7t-113.5 24t-87 45.5t-62 71.5q-41 -47 -95 -85.5t-117 -69t-133.5 -52t-142.5 -33.5l-222 -38l-24 190q89 15 141.5 24t82 14.5t41.5 7.5t20 4q-9 121 -31.5 246.5t-67.5 245.5
t-118 229.5t-185 199.5l94 152q123 -100 205.5 -222t134.5 -256t79 -274t38 -275q53 21 98 47.5t78 58t51.5 68t18.5 77.5v1053zM613 1417q-54 -10 -100 -19.5t-99.5 -27t-122.5 -47t-169 -77.5l-44 118q42 21 77 38t67 31q-38 31 -62 69.5t-24 86.5q0 45 22.5 89t56.5 78
t74 55t74 21q39 0 68.5 -8.5t53 -23.5t43 -35t39.5 -43l-76 -84q-12 13 -23.5 25t-26 20.5t-33.5 13.5t-45 5q-19 0 -41 -10t-40.5 -25.5t-31 -36t-12.5 -41.5q0 -26 37.5 -50.5t93.5 -46.5q63 21 117.5 31.5t107.5 22.5z" />
    <glyph glyph-name="uni0644_uni0625.isol" unicode="&#xfedf;&#xfe88;" horiz-adv-x="1288" arabic-form="isolated" 
d="M957 1556h154v-1053q0 -71 -23 -129t-63.5 -105.5t-95.5 -86t-119 -70t-134.5 -57.5t-141.5 -48l-154 -49l-44 185q43 13 71 21.5t47 14.5t33 10.5t29 10.5q-5 84 -13.5 180t-24.5 197.5t-41 205.5t-63.5 204.5t-92.5 194.5t-127 176l113 129q77 -86 134.5 -185.5
t100 -206.5t71.5 -218t48 -219.5t29.5 -211.5t17.5 -194q61 24 114 50.5t92 57.5t61 66t22 77v1053zM878 -486q-31 -6 -57.5 -10.5t-55.5 -11t-62.5 -16.5t-78 -27t-102.5 -43t-135 -63l-44 118q42 21 77 38t67 31q-38 31 -62 69.5t-24 86.5q0 45 22.5 89t56.5 78t74 55
t74 21q39 0 68.5 -8.5t53 -23.5t43 -35t39.5 -43l-76 -84q-12 13 -23.5 25t-26 20.5t-33.5 13.5t-45 5q-19 0 -41 -10t-40.5 -25.5t-31 -36t-12.5 -41.5q0 -26 37.5 -50.5t93.5 -46.5q36 13 66 20.5t56.5 13t51 10t51.5 10.5z" />
    <glyph glyph-name="uni0644_uni0625.fina" unicode="&#xfee0;&#xfe88;" horiz-adv-x="1380" arabic-form="final" 
d="M922 1556h154v-1053q0 -64 17.5 -105.5t55 -66t94.5 -34t137 -9.5v-192q-78 0 -141.5 7t-113.5 24t-87 45.5t-62 71.5q-41 -47 -95 -85.5t-117 -69t-133.5 -52t-142.5 -33.5l-222 -38l-24 190q69 12 137 23t138 25q-6 85 -14 180.5t-23.5 195.5t-40.5 203t-63.5 202.5
t-93 194t-129.5 178.5l113 129q77 -87 135 -187t100.5 -207t71 -218t47.5 -220t30 -212t17 -194q55 21 102 47.5t81 58t53 69t19 79.5v1053zM904 -486q-31 -6 -57.5 -10.5t-55.5 -11t-62.5 -16.5t-78 -27t-102.5 -43t-135 -63l-44 118q42 21 77 38t67 31q-38 31 -62 69.5
t-24 86.5q0 45 22.5 89t56.5 78t74 55t74 21q39 0 68.5 -8.5t53 -23.5t43 -35t39.5 -43l-76 -84q-12 13 -23.5 25t-26 20.5t-33.5 13.5t-45 5q-19 0 -41 -10t-40.5 -25.5t-31 -36t-12.5 -41.5q0 -26 37.5 -50.5t93.5 -46.5q36 13 66 20.5t56.5 13t51 10t51.5 10.5z" />
    <glyph glyph-name="uniFEFB_uni064B" unicode="&#xfedf;&#xfe8e;&#x64b;" horiz-adv-x="1443" 
d="M1120 1556h154v-1053q0 -71 -23 -129t-63.5 -105.5t-95.5 -86t-119 -70t-134.5 -57.5t-141.5 -48l-154 -49l-44 185q44 15 72 23.5t46.5 14.5t32.5 10t29 9q-10 146 -35 276.5t-69 243t-108.5 206t-152.5 164.5l94 150q98 -79 171 -185.5t124 -233t82.5 -271t45.5 -298.5
q61 24 114 50.5t92 57.5t61 66t22 77v1053zM611 1725l-491 -195v92l491 195v-92zM611 1463l-491 -195v92l491 195v-92z" />
    <glyph glyph-name="uniFEFC_uni064B" unicode="&#xfee0;&#xfe8e;&#x64b;" horiz-adv-x="1574" 
d="M1116 1556h154v-1053q0 -64 17.5 -105.5t55 -66t94.5 -34t137 -9.5v-192q-78 0 -141.5 7t-113.5 24t-87 45.5t-62 71.5q-41 -47 -95 -85.5t-117 -69t-133.5 -52t-142.5 -33.5l-222 -38l-24 190q89 15 141.5 24t82 14.5t41.5 7.5t20 4q-9 121 -31.5 246.5t-67.5 245.5
t-118 229.5t-185 199.5l94 152q123 -100 205.5 -222t134.5 -256t79 -274t38 -275q53 21 98 47.5t78 58t51.5 68t18.5 77.5v1053zM611 1725l-491 -195v92l491 195v-92zM611 1463l-491 -195v92l491 195v-92z" />
    <glyph glyph-name="uni0633_uni06CC.isol" unicode="&#xfeb3;&#xfbfd;" horiz-adv-x="3130" 
d="M2126 96q-92 0 -152.5 25.5t-101 67t-66.5 94.5t-48 109q-14 34 -32.5 68.5t-48 62t-73.5 44.5t-109 17q-70 0 -142 -13t-131 -36.5t-96.5 -57t-37.5 -75.5q0 -10 4.5 -18t21 -16.5t48 -19t86.5 -25.5q99 -28 156.5 -53.5t87 -57t37 -73.5t7.5 -103q0 -48 -27 -90
t-74 -78t-110.5 -65.5t-136.5 -53.5t-151.5 -41.5t-156 -29t-150 -17.5t-132.5 -6q-235 0 -355.5 98.5t-120.5 281.5q0 72 16.5 141.5t40.5 133.5t52 119t52 97l123 -58q-20 -37 -43.5 -82t-43.5 -99t-33.5 -117t-13.5 -135q0 -91 80 -139.5t246 -48.5q67 0 152 5
t172.5 15.5t171 26.5t148.5 37t104.5 47t39.5 58q0 15 -5.5 26.5t-24.5 22.5t-54 23t-94 29q-90 25 -143 50t-81.5 55t-37 68.5t-8.5 91.5q0 57 23.5 106.5t64.5 91t95.5 74.5t116.5 55.5t127.5 34.5t129.5 12q102 0 169 -27t111 -71.5t72 -101t51 -114.5q13 -34 28 -65.5
t39.5 -55.5t62.5 -38.5t98 -14.5q44 0 77.5 18.5t56.5 44t35 53.5t12 48v146h154v-155q0 -43 15.5 -72.5t40 -48t54.5 -26.5t60 -8q43 0 82.5 11t69.5 30t48 44t18 53q0 66 -23.5 164t-68.5 242l160 14q25 -79 42 -138.5t27.5 -107.5t15 -89.5t4.5 -84.5q0 -66 -31 -126
t-83 -105t-120 -72t-141 -27q-36 0 -72 7t-70.5 22t-64.5 38.5t-54 57.5q-42 -56 -103.5 -90.5t-140.5 -34.5z" />
    <glyph glyph-name="uni0633_uni06CC.fina" unicode="&#xfeb4;&#xfbfd;" horiz-adv-x="3241" 
d="M3241 96h-109q-36 0 -72.5 8t-70.5 24.5t-64.5 41.5t-53.5 59q-21 -28 -47 -52.5t-56.5 -42.5t-66 -28t-74.5 -10q-36 0 -72 7t-70.5 22.5t-64.5 40t-54 58.5q-42 -57 -103.5 -92.5t-140.5 -35.5q-92 0 -152.5 25.5t-101.5 67t-67.5 94.5t-48.5 109q-14 34 -31.5 68.5
t-46 62t-71.5 44.5t-108 17q-70 0 -142 -13t-131 -36.5t-96.5 -57t-37.5 -75.5q0 -10 4.5 -18t21 -16.5t48 -19t86.5 -25.5q99 -28 156.5 -53.5t87 -57t37 -73.5t7.5 -103q0 -48 -27 -90t-74 -78t-110.5 -65.5t-136.5 -53.5t-151.5 -41.5t-156 -29t-150 -17.5t-132.5 -6
q-235 0 -355.5 98.5t-120.5 281.5q0 72 16.5 141.5t40.5 133.5t52 119t52 97l123 -58q-20 -37 -43.5 -82t-43.5 -99t-33.5 -117t-13.5 -135q0 -91 80 -139.5t246 -48.5q67 0 152 5t172.5 15.5t171 26.5t148.5 37t104.5 47t39.5 58q0 15 -5.5 26.5t-24.5 22.5t-54 23t-94 29
q-90 25 -143 50t-81.5 55t-37 68.5t-8.5 91.5q0 57 23.5 106.5t64.5 91t95.5 74.5t116.5 55.5t127.5 34.5t129.5 12q102 0 168 -27t109 -71.5t70 -101t50 -114.5q13 -34 28.5 -65.5t40.5 -55.5t63 -38.5t98 -14.5q44 0 78 18.5t57.5 44t35.5 53.5t12 48v146h150v-155
q0 -43 15.5 -72.5t40.5 -48t55.5 -26.5t60.5 -8q44 0 78 19t57.5 46t35.5 55.5t12 48.5v141h150v-150q0 -43 15.5 -73.5t40.5 -49.5t55.5 -28t60.5 -9h109v-192z" />
    <glyph glyph-name="uni0635_uni06CC.isol" unicode="&#xfebb;&#xfbfd;" horiz-adv-x="3318" 
d="M2153 96q-92 0 -157.5 25.5t-112.5 67t-78 94.5t-53 109q-14 34 -31.5 68.5t-46 62t-71.5 44.5t-108 17q-70 0 -142 -13t-131 -36.5t-96.5 -57t-37.5 -75.5q0 -10 4.5 -18t21 -16.5t48 -19t86.5 -25.5q99 -28 156.5 -53.5t87 -57t37 -73.5t7.5 -103q0 -48 -27 -90
t-74 -78t-110.5 -65.5t-136.5 -53.5t-151.5 -41.5t-156 -29t-150 -17.5t-132.5 -6q-235 0 -355.5 98.5t-120.5 281.5q0 72 16.5 141.5t40.5 133.5t52 119t52 97l123 -58q-20 -37 -43.5 -82t-43.5 -99t-33.5 -117t-13.5 -135q0 -91 80 -139.5t246 -48.5q67 0 152 5
t172.5 15.5t171 26.5t148.5 37t104.5 47t39.5 58q0 15 -5.5 26.5t-24.5 22.5t-54 23t-94 29q-90 25 -143 50t-81.5 55t-37 68.5t-8.5 91.5q0 57 23.5 106.5t64.5 91t95.5 74.5t116.5 55.5t127.5 34.5t129.5 12q102 0 168 -27t109 -71.5t70 -101t50 -114.5q12 -32 31 -62.5
t47 -54.5t66 -39t88 -16q49 66 104.5 137t116.5 139.5t125.5 129.5t132 107.5t136 73.5t137.5 27q49 0 92 -18t78.5 -47t63 -67t47 -77.5t29.5 -78.5t10 -71q0 -82 -42.5 -162.5t-129.5 -144t-220.5 -103t-315.5 -39.5h-335zM2488 288q144 0 249 22.5t174 59t102 82.5t33 93
q0 22 -12 51t-34 54.5t-53.5 43.5t-70.5 18q-47 0 -94.5 -17t-95 -47t-94 -70.5t-92 -87.5t-89 -98.5t-83.5 -103.5h160z" />
    <glyph glyph-name="uni0635_uni06CC.fina" unicode="&#xfebc;&#xfbfd;" horiz-adv-x="3371" 
d="M2457 282q144 0 249 22.5t174 59t102 82.5t33 93q0 22 -12 51t-34 54.5t-53.5 43.5t-70.5 18q-47 0 -94.5 -17t-95 -47t-94 -70.5t-92 -87.5t-89 -98.5t-83.5 -103.5h160zM3371 96q-91 0 -156.5 2t-120 8.5t-106 20.5t-114.5 38q-81 -33 -185.5 -54t-231.5 -21h-335
q-92 0 -152.5 26.5t-101.5 69t-67.5 96.5t-48.5 110q-14 34 -31.5 68.5t-46 62t-71.5 44.5t-108 17q-70 0 -142 -13t-131 -36.5t-96.5 -57t-37.5 -75.5q0 -10 4.5 -18t21 -16.5t48 -19t86.5 -25.5q99 -28 156.5 -53.5t87 -57t37 -73.5t7.5 -103q0 -48 -27 -90t-74 -78
t-110.5 -65.5t-136.5 -53.5t-151.5 -41.5t-156 -29t-150 -17.5t-132.5 -6q-235 0 -355.5 98.5t-120.5 281.5q0 72 16.5 141.5t40.5 133.5t52 119t52 97l123 -58q-20 -37 -43.5 -82t-43.5 -99t-33.5 -117t-13.5 -135q0 -91 80 -139.5t246 -48.5q67 0 152 5t172.5 15.5
t171 26.5t148.5 37t104.5 47t39.5 58q0 15 -5.5 26.5t-24.5 22.5t-54 23t-94 29q-90 25 -143 50t-81.5 55t-37 68.5t-8.5 91.5q0 57 23.5 106.5t64.5 91t95.5 74.5t116.5 55.5t127.5 34.5t129.5 12q102 0 168 -27t109 -71.5t70 -101t50 -114.5q12 -32 26.5 -62t36.5 -54.5
t55 -41t83 -20.5q49 66 104.5 137t116.5 139.5t125.5 129.5t132 107.5t136 73.5t137.5 27q49 0 92 -18t78.5 -47t63 -67t47 -77.5t29.5 -78.5t10 -71q0 -61 -24 -122t-72 -116q47 -9 121.5 -11t180.5 -2v-192z" />
    <glyph glyph-name="uni0634_uni06CC.isol" unicode="&#xfeb7;&#xfbfd;" horiz-adv-x="3130" 
d="M2126 96q-92 0 -152.5 25.5t-101 67t-66.5 94.5t-48 109q-14 34 -32.5 68.5t-48 62t-73.5 44.5t-109 17q-70 0 -142 -13t-131 -36.5t-96.5 -57t-37.5 -75.5q0 -10 4.5 -18t21 -16.5t48 -19t86.5 -25.5q99 -28 156.5 -53.5t87 -57t37 -73.5t7.5 -103q0 -48 -27 -90
t-74 -78t-110.5 -65.5t-136.5 -53.5t-151.5 -41.5t-156 -29t-150 -17.5t-132.5 -6q-235 0 -355.5 98.5t-120.5 281.5q0 72 16.5 141.5t40.5 133.5t52 119t52 97l123 -58q-20 -37 -43.5 -82t-43.5 -99t-33.5 -117t-13.5 -135q0 -91 80 -139.5t246 -48.5q67 0 152 5
t172.5 15.5t171 26.5t148.5 37t104.5 47t39.5 58q0 15 -5.5 26.5t-24.5 22.5t-54 23t-94 29q-90 25 -143 50t-81.5 55t-37 68.5t-8.5 91.5q0 57 23.5 106.5t64.5 91t95.5 74.5t116.5 55.5t127.5 34.5t129.5 12q102 0 169 -27t111 -71.5t72 -101t51 -114.5q13 -34 28 -65.5
t39.5 -55.5t62.5 -38.5t98 -14.5q44 0 77.5 18.5t56.5 44t35 53.5t12 48v146h154v-155q0 -43 15.5 -72.5t40 -48t54.5 -26.5t60 -8q43 0 82.5 11t69.5 30t48 44t18 53q0 66 -23.5 164t-68.5 242l160 14q25 -79 42 -138.5t27.5 -107.5t15 -89.5t4.5 -84.5q0 -66 -31 -126
t-83 -105t-120 -72t-141 -27q-36 0 -72 7t-70.5 22t-64.5 38.5t-54 57.5q-42 -56 -103.5 -90.5t-140.5 -34.5zM2200 965h-200v200h200v-200zM2511 965h-200v200h200v-200zM2355 1268h-200v200h200v-200z" />
    <glyph glyph-name="uni0634_uni06CC.fina" unicode="&#xfeb8;&#xfbfd;" horiz-adv-x="3241" 
d="M3241 96h-109q-36 0 -72.5 8t-70.5 24.5t-64.5 41.5t-53.5 59q-21 -28 -47 -52.5t-56.5 -42.5t-66 -28t-74.5 -10q-36 0 -72 7t-70.5 22.5t-64.5 40t-54 58.5q-42 -57 -103.5 -92.5t-140.5 -35.5q-92 0 -152.5 25.5t-101.5 67t-67.5 94.5t-48.5 109q-14 34 -31.5 68.5
t-46 62t-71.5 44.5t-108 17q-70 0 -142 -13t-131 -36.5t-96.5 -57t-37.5 -75.5q0 -10 4.5 -18t21 -16.5t48 -19t86.5 -25.5q99 -28 156.5 -53.5t87 -57t37 -73.5t7.5 -103q0 -48 -27 -90t-74 -78t-110.5 -65.5t-136.5 -53.5t-151.5 -41.5t-156 -29t-150 -17.5t-132.5 -6
q-235 0 -355.5 98.5t-120.5 281.5q0 72 16.5 141.5t40.5 133.5t52 119t52 97l123 -58q-20 -37 -43.5 -82t-43.5 -99t-33.5 -117t-13.5 -135q0 -91 80 -139.5t246 -48.5q67 0 152 5t172.5 15.5t171 26.5t148.5 37t104.5 47t39.5 58q0 15 -5.5 26.5t-24.5 22.5t-54 23t-94 29
q-90 25 -143 50t-81.5 55t-37 68.5t-8.5 91.5q0 57 23.5 106.5t64.5 91t95.5 74.5t116.5 55.5t127.5 34.5t129.5 12q102 0 168 -27t109 -71.5t70 -101t50 -114.5q13 -34 28.5 -65.5t40.5 -55.5t63 -38.5t98 -14.5q44 0 78 18.5t57.5 44t35.5 53.5t12 48v146h150v-155
q0 -43 15.5 -72.5t40.5 -48t55.5 -26.5t60.5 -8q44 0 78 19t57.5 46t35.5 55.5t12 48.5v141h150v-150q0 -43 15.5 -73.5t40.5 -49.5t55.5 -28t60.5 -9h109v-192zM2200 965h-200v200h200v-200zM2511 965h-200v200h200v-200zM2355 1268h-200v200h200v-200z" />
    <glyph glyph-name="uni0636_uni06CC.isol" unicode="&#xfebf;&#xfbfd;" horiz-adv-x="3318" 
d="M2153 96q-92 0 -157.5 25.5t-112.5 67t-78 94.5t-53 109q-14 34 -31.5 68.5t-46 62t-71.5 44.5t-108 17q-70 0 -142 -13t-131 -36.5t-96.5 -57t-37.5 -75.5q0 -10 4.5 -18t21 -16.5t48 -19t86.5 -25.5q99 -28 156.5 -53.5t87 -57t37 -73.5t7.5 -103q0 -48 -27 -90
t-74 -78t-110.5 -65.5t-136.5 -53.5t-151.5 -41.5t-156 -29t-150 -17.5t-132.5 -6q-235 0 -355.5 98.5t-120.5 281.5q0 72 16.5 141.5t40.5 133.5t52 119t52 97l123 -58q-20 -37 -43.5 -82t-43.5 -99t-33.5 -117t-13.5 -135q0 -91 80 -139.5t246 -48.5q67 0 152 5
t172.5 15.5t171 26.5t148.5 37t104.5 47t39.5 58q0 15 -5.5 26.5t-24.5 22.5t-54 23t-94 29q-90 25 -143 50t-81.5 55t-37 68.5t-8.5 91.5q0 57 23.5 106.5t64.5 91t95.5 74.5t116.5 55.5t127.5 34.5t129.5 12q102 0 168 -27t109 -71.5t70 -101t50 -114.5q12 -32 31 -62.5
t47 -54.5t66 -39t88 -16q49 66 104.5 137t116.5 139.5t125.5 129.5t132 107.5t136 73.5t137.5 27q49 0 92 -18t78.5 -47t63 -67t47 -77.5t29.5 -78.5t10 -71q0 -82 -42.5 -162.5t-129.5 -144t-220.5 -103t-315.5 -39.5h-335zM2488 288q144 0 249 22.5t174 59t102 82.5t33 93
q0 22 -12 51t-34 54.5t-53.5 43.5t-70.5 18q-47 0 -94.5 -17t-95 -47t-94 -70.5t-92 -87.5t-89 -98.5t-83.5 -103.5h160zM2695 1154h-200v200h200v-200z" />
    <glyph glyph-name="uni0636_uni06CC.fina" unicode="&#xfec0;&#xfbfd;" horiz-adv-x="3371" 
d="M2457 282q144 0 249 22.5t174 59t102 82.5t33 93q0 22 -12 51t-34 54.5t-53.5 43.5t-70.5 18q-47 0 -94.5 -17t-95 -47t-94 -70.5t-92 -87.5t-89 -98.5t-83.5 -103.5h160zM3371 96q-91 0 -156.5 2t-120 8.5t-106 20.5t-114.5 38q-81 -33 -185.5 -54t-231.5 -21h-335
q-92 0 -152.5 26.5t-101.5 69t-67.5 96.5t-48.5 110q-14 34 -31.5 68.5t-46 62t-71.5 44.5t-108 17q-70 0 -142 -13t-131 -36.5t-96.5 -57t-37.5 -75.5q0 -10 4.5 -18t21 -16.5t48 -19t86.5 -25.5q99 -28 156.5 -53.5t87 -57t37 -73.5t7.5 -103q0 -48 -27 -90t-74 -78
t-110.5 -65.5t-136.5 -53.5t-151.5 -41.5t-156 -29t-150 -17.5t-132.5 -6q-235 0 -355.5 98.5t-120.5 281.5q0 72 16.5 141.5t40.5 133.5t52 119t52 97l123 -58q-20 -37 -43.5 -82t-43.5 -99t-33.5 -117t-13.5 -135q0 -91 80 -139.5t246 -48.5q67 0 152 5t172.5 15.5
t171 26.5t148.5 37t104.5 47t39.5 58q0 15 -5.5 26.5t-24.5 22.5t-54 23t-94 29q-90 25 -143 50t-81.5 55t-37 68.5t-8.5 91.5q0 57 23.5 106.5t64.5 91t95.5 74.5t116.5 55.5t127.5 34.5t129.5 12q102 0 168 -27t109 -71.5t70 -101t50 -114.5q12 -32 26.5 -62t36.5 -54.5
t55 -41t83 -20.5q49 66 104.5 137t116.5 139.5t125.5 129.5t132 107.5t136 73.5t137.5 27q49 0 92 -18t78.5 -47t63 -67t47 -77.5t29.5 -78.5t10 -71q0 -61 -24 -122t-72 -116q47 -9 121.5 -11t180.5 -2v-192zM2695 1154h-200v200h200v-200z" />
    <glyph glyph-name="uni0645_uni06CC.isol" unicode="&#xfee3;&#xfbfd;" horiz-adv-x="2589" 
d="M1144 218q18 51 45 86.5t59.5 58t69.5 32.5t76 10q30 0 60 -4.5t59.5 -10t59 -10t60.5 -4.5q45 0 82.5 9t56.5 32q50 62 96 122.5t92.5 108t95 77t102.5 29.5q50 0 102.5 -35.5t96 -93.5t71 -131t27.5 -148q0 -144 -54.5 -210t-151.5 -66q-22 0 -62.5 3t-93.5 20.5
t-115.5 55t-128.5 106.5q-48 -42 -103.5 -56.5t-112.5 -14.5q-31 0 -61 4.5t-60 10t-59 10t-59 4.5q-37 0 -67 -10t-38 -36q115 -67 175.5 -131t60.5 -138q0 -48 -42.5 -88t-113.5 -72t-162.5 -56t-190.5 -40t-197 -24t-182 -8q-113 0 -207.5 23.5t-162.5 72t-106.5 121.5
t-38.5 172q0 72 16.5 141.5t40.5 133.5t52 119t52 97l123 -58q-20 -37 -43.5 -82t-43.5 -99t-33.5 -117t-13.5 -135q0 -50 29 -87t78.5 -61.5t116 -36.5t141.5 -12q70 0 151.5 2.5t163.5 7.5t158.5 13t135 18.5t94 24t35.5 30.5q0 14 -74 56.5t-212 112.5zM1958 385
q45 -46 90 -71t84 -36.5t69.5 -13.5t47.5 -2q26 0 41 20t15 64q0 40 -13.5 78.5t-35 69t-47.5 49.5t-51 19q-22 0 -45.5 -14.5t-48.5 -39t-51.5 -56.5t-54.5 -67z" />
    <glyph glyph-name="uni0645_uni06CC.fina" unicode="&#xfee4;&#xfbfd;" horiz-adv-x="2758" 
d="M1907 380q62 -95 121 -135t108 -40q40 0 64 38.5t24 98.5q0 44 -9.5 79t-23.5 59.5t-30 37.5t-29 13q-24 0 -50.5 -12t-55 -32t-59 -48t-60.5 -59zM2758 96q-43 0 -89 3t-95 18.5t-101 48.5t-106 92q-9 -55 -29 -100t-49.5 -77.5t-68 -50t-84.5 -17.5q-38 0 -79.5 13.5
t-85 43t-88.5 76.5t-90 115q-36 -35 -73 -56t-87 -21q-31 0 -61 4.5t-60 10t-59 10t-59 4.5q-37 0 -67 -10t-38 -36q115 -67 175.5 -131t60.5 -138q0 -48 -42.5 -88t-113.5 -72t-162.5 -56t-190.5 -40t-197 -24t-182 -8q-113 0 -207.5 23.5t-162.5 72t-106.5 121.5
t-38.5 172q0 72 16.5 141.5t40.5 133.5t52 119t52 97l123 -58q-20 -37 -43.5 -82t-43.5 -99t-33.5 -117t-13.5 -135q0 -50 29 -87t78.5 -61.5t116 -36.5t141.5 -12q70 0 151.5 2.5t163.5 7.5t158.5 13t135 18.5t94 24t35.5 30.5q0 14 -74 56.5t-212 112.5l55 151
q18 51 45 86.5t59.5 58t69.5 32.5t76 10q30 0 60 -4.5t59.5 -10t59 -10t60.5 -4.5q29 0 51.5 19.5t50.5 49.5q49 53 99.5 103t100.5 89t99.5 62.5t97.5 23.5q35 0 78.5 -31t85.5 -82l158 -196q34 -43 73.5 -68t79 -37.5t78.5 -16.5t73 -4v-192z" />
    <glyph glyph-name="uni0649_uni06CC.tight.fina" unicode="&#xfbe9;&#xfbfd;" horiz-adv-x="2163" 
d="M2163 96q-91 0 -153 25t-105.5 66.5t-73.5 94t-56 106.5q-17 36 -38 71t-52.5 62.5t-77 45t-112.5 17.5q-70 0 -142 -13t-131 -36.5t-96.5 -57t-37.5 -75.5q0 -10 4.5 -18t21 -16.5t48 -19t86.5 -25.5q99 -28 156.5 -53.5t87 -57t37 -73.5t7.5 -103q0 -48 -27 -90
t-74 -78t-110.5 -65.5t-136.5 -53.5t-151.5 -41.5t-156 -29t-150 -17.5t-132.5 -6q-235 0 -355.5 98.5t-120.5 281.5q0 72 16.5 141.5t40.5 133.5t52 119t52 97l123 -58q-20 -37 -43.5 -82t-43.5 -99t-33.5 -117t-13.5 -135q0 -91 80 -139.5t246 -48.5q67 0 152 5
t172.5 15.5t171 26.5t148.5 37t104.5 47t39.5 58q0 15 -5.5 26.5t-24.5 22.5t-54 23t-94 29q-90 25 -143 50t-81.5 55t-37 68.5t-8.5 91.5q0 57 23.5 106.5t64.5 91t95.5 74.5t116.5 55.5t127.5 34.5t129.5 12q100 0 167.5 -26.5t113.5 -69t77 -97t58 -111.5
q17 -35 35.5 -68t46.5 -59t68.5 -41.5t101.5 -15.5v-192z" />
    <glyph glyph-name="uni0646_uni06CC.fina" unicode="&#xfee8;&#xfbfd;" horiz-adv-x="2243" 
d="M2243 96q-82 0 -144.5 25t-110.5 64.5t-85 89t-67 97.5q-24 37 -51.5 75t-66.5 68.5t-93 49.5t-130 19q-70 0 -142 -13t-131 -36.5t-96.5 -57t-37.5 -75.5q0 -10 4.5 -18t21 -16.5t48 -19t86.5 -25.5q99 -28 156.5 -53.5t87 -57t37 -73.5t7.5 -103q0 -48 -27 -90t-74 -78
t-110.5 -65.5t-136.5 -53.5t-151.5 -41.5t-156 -29t-150 -17.5t-132.5 -6q-235 0 -355.5 98.5t-120.5 281.5q0 72 16.5 141.5t40.5 133.5t52 119t52 97l123 -58q-20 -37 -43.5 -82t-43.5 -99t-33.5 -117t-13.5 -135q0 -91 80 -139.5t246 -48.5q67 0 152 5t172.5 15.5
t171 26.5t148.5 37t104.5 47t39.5 58q0 15 -5.5 26.5t-24.5 22.5t-54 23t-94 29q-90 25 -143 50t-81.5 55t-37 68.5t-8.5 91.5q0 57 23.5 106.5t64.5 91t95.5 74.5t116.5 55.5t127.5 34.5t129.5 12q71 0 126.5 -12t100 -33.5t79.5 -50t63.5 -62t52.5 -70.5t47 -74
q22 -36 45.5 -69.5t55 -59.5t74 -41.5t104.5 -15.5v-192zM1593 1075h-200v200h200v-200z" />
    <glyph glyph-name="uni062A_uni06CC.fina" unicode="&#xfe98;&#xfbfd;" horiz-adv-x="2243" 
d="M2243 96q-82 0 -144.5 25t-110.5 64.5t-85 89t-67 97.5q-24 37 -51.5 75t-66.5 68.5t-93 49.5t-130 19q-70 0 -142 -13t-131 -36.5t-96.5 -57t-37.5 -75.5q0 -10 4.5 -18t21 -16.5t48 -19t86.5 -25.5q99 -28 156.5 -53.5t87 -57t37 -73.5t7.5 -103q0 -48 -27 -90t-74 -78
t-110.5 -65.5t-136.5 -53.5t-151.5 -41.5t-156 -29t-150 -17.5t-132.5 -6q-235 0 -355.5 98.5t-120.5 281.5q0 72 16.5 141.5t40.5 133.5t52 119t52 97l123 -58q-20 -37 -43.5 -82t-43.5 -99t-33.5 -117t-13.5 -135q0 -91 80 -139.5t246 -48.5q67 0 152 5t172.5 15.5
t171 26.5t148.5 37t104.5 47t39.5 58q0 15 -5.5 26.5t-24.5 22.5t-54 23t-94 29q-90 25 -143 50t-81.5 55t-37 68.5t-8.5 91.5q0 57 23.5 106.5t64.5 91t95.5 74.5t116.5 55.5t127.5 34.5t129.5 12q71 0 126.5 -12t100 -33.5t79.5 -50t63.5 -62t52.5 -70.5t47 -74
q22 -36 45.5 -69.5t55 -59.5t74 -41.5t104.5 -15.5v-192zM1445 1075h-200v200h200v-200zM1740 1075h-200v200h200v-200z" />
    <glyph glyph-name="uni062B_uni06CC.fina" unicode="&#xfe9c;&#xfbfd;" horiz-adv-x="2243" 
d="M2243 96q-82 0 -144.5 25t-110.5 64.5t-85 89t-67 97.5q-24 37 -51.5 75t-66.5 68.5t-93 49.5t-130 19q-70 0 -142 -13t-131 -36.5t-96.5 -57t-37.5 -75.5q0 -10 4.5 -18t21 -16.5t48 -19t86.5 -25.5q99 -28 156.5 -53.5t87 -57t37 -73.5t7.5 -103q0 -48 -27 -90t-74 -78
t-110.5 -65.5t-136.5 -53.5t-151.5 -41.5t-156 -29t-150 -17.5t-132.5 -6q-235 0 -355.5 98.5t-120.5 281.5q0 72 16.5 141.5t40.5 133.5t52 119t52 97l123 -58q-20 -37 -43.5 -82t-43.5 -99t-33.5 -117t-13.5 -135q0 -91 80 -139.5t246 -48.5q67 0 152 5t172.5 15.5
t171 26.5t148.5 37t104.5 47t39.5 58q0 15 -5.5 26.5t-24.5 22.5t-54 23t-94 29q-90 25 -143 50t-81.5 55t-37 68.5t-8.5 91.5q0 57 23.5 106.5t64.5 91t95.5 74.5t116.5 55.5t127.5 34.5t129.5 12q71 0 126.5 -12t100 -33.5t79.5 -50t63.5 -62t52.5 -70.5t47 -74
q22 -36 45.5 -69.5t55 -59.5t74 -41.5t104.5 -15.5v-192zM1437 1075h-200v200h200v-200zM1748 1075h-200v200h200v-200zM1592 1378h-200v200h200v-200z" />
    <glyph glyph-name="uni0644_uni06CC.isol" unicode="&#xfedf;&#xfbfd;" horiz-adv-x="2110" 
d="M1764 1556h154v-1053q0 -59 -19 -104.5t-51 -80t-72.5 -58t-83 -38.5t-84 -21.5t-74.5 -6.5q-19 0 -40 3t-41.5 6.5t-39 6.5t-33.5 3q-14 0 -28.5 -2.5t-27 -8t-22 -14t-13.5 -21.5q115 -67 175.5 -131t60.5 -138q0 -48 -42.5 -88t-113.5 -72t-162.5 -56t-190.5 -40
t-197 -24t-182 -8q-113 0 -207.5 23.5t-162.5 72t-106.5 121.5t-38.5 172q0 72 16.5 141.5t40.5 133.5t52 119t52 97l123 -58q-20 -37 -43.5 -82t-43.5 -99t-33.5 -117t-13.5 -135q0 -50 29 -87t78.5 -61.5t116 -36.5t141.5 -12q70 0 151.5 2.5t163.5 7.5t158.5 13t135 18.5
t94 24t35.5 30.5q0 14 -74 56.5t-212 112.5l55 151q18 51 44.5 86.5t57.5 58t65.5 32.5t68.5 10q13 0 31 -3t38.5 -6.5t42 -6.5t42.5 -3q31 0 71 6t75 19.5t59.5 36t24.5 55.5v1053z" />
    <glyph glyph-name="uni0644_uni06CC.fina" unicode="&#xfee0;&#xfbfd;" horiz-adv-x="2163" 
d="M1748 275q-43 -37 -99 -49.5t-119 -12.5h-150q-14 0 -28.5 -2.5t-27 -8t-22 -14t-13.5 -21.5q115 -67 175.5 -131t60.5 -138q0 -48 -42.5 -88t-113.5 -72t-162.5 -56t-190.5 -40t-197 -24t-182 -8q-113 0 -207.5 23.5t-162.5 72t-106.5 121.5t-38.5 172q0 72 16.5 141.5
t40.5 133.5t52 119t52 97l123 -58q-20 -37 -43.5 -82t-43.5 -99t-33.5 -117t-13.5 -135q0 -50 29 -87t78.5 -61.5t116 -36.5t141.5 -12q70 0 151.5 2.5t163.5 7.5t158.5 13t135 18.5t94 24t35.5 30.5q0 14 -74 56.5t-212 112.5l55 151q18 51 44.5 86.5t57.5 58t65.5 32.5
t68.5 10h150q37 0 69 8t55.5 31t37 65t13.5 111v936h154v-1007q0 -62 12.5 -110.5t46 -82t93 -51t152.5 -17.5v-192q-70 1 -131 10t-113 29.5t-95 54.5t-76 85z" />
    <glyph glyph-name="uni0628_uni06CC.fina" unicode="&#xfe92;&#xfbfd;" horiz-adv-x="2243" 
d="M2243 96q-82 0 -144.5 25t-110.5 64.5t-85 89t-67 97.5q-24 37 -51.5 75t-66.5 68.5t-93 49.5t-130 19q-70 0 -142 -13t-131 -36.5t-96.5 -57t-37.5 -75.5q0 -10 4.5 -18t21 -16.5t48 -19t86.5 -25.5q99 -28 156.5 -53.5t87 -57t37 -73.5t7.5 -103q0 -48 -27 -90t-74 -78
t-110.5 -65.5t-136.5 -53.5t-151.5 -41.5t-156 -29t-150 -17.5t-132.5 -6q-235 0 -355.5 98.5t-120.5 281.5q0 72 16.5 141.5t40.5 133.5t52 119t52 97l123 -58q-20 -37 -43.5 -82t-43.5 -99t-33.5 -117t-13.5 -135q0 -91 80 -139.5t246 -48.5q67 0 152 5t172.5 15.5
t171 26.5t148.5 37t104.5 47t39.5 58q0 15 -5.5 26.5t-24.5 22.5t-54 23t-94 29q-90 25 -143 50t-81.5 55t-37 68.5t-8.5 91.5q0 57 23.5 106.5t64.5 91t95.5 74.5t116.5 55.5t127.5 34.5t129.5 12q71 0 126.5 -12t100 -33.5t79.5 -50t63.5 -62t52.5 -70.5t47 -74
q22 -36 45.5 -69.5t55 -59.5t74 -41.5t104.5 -15.5v-192zM1906 -366h-200v200h200v-200z" />
    <glyph glyph-name="uni0649_uni06CC.fina" unicode="&#xfbe9;&#xfbfd;" horiz-adv-x="2243" 
d="M2243 96q-82 0 -144.5 25t-110.5 64.5t-85 89t-67 97.5q-24 37 -51.5 75t-66.5 68.5t-93 49.5t-130 19q-70 0 -142 -13t-131 -36.5t-96.5 -57t-37.5 -75.5q0 -10 4.5 -18t21 -16.5t48 -19t86.5 -25.5q99 -28 156.5 -53.5t87 -57t37 -73.5t7.5 -103q0 -48 -27 -90t-74 -78
t-110.5 -65.5t-136.5 -53.5t-151.5 -41.5t-156 -29t-150 -17.5t-132.5 -6q-235 0 -355.5 98.5t-120.5 281.5q0 72 16.5 141.5t40.5 133.5t52 119t52 97l123 -58q-20 -37 -43.5 -82t-43.5 -99t-33.5 -117t-13.5 -135q0 -91 80 -139.5t246 -48.5q67 0 152 5t172.5 15.5
t171 26.5t148.5 37t104.5 47t39.5 58q0 15 -5.5 26.5t-24.5 22.5t-54 23t-94 29q-90 25 -143 50t-81.5 55t-37 68.5t-8.5 91.5q0 57 23.5 106.5t64.5 91t95.5 74.5t116.5 55.5t127.5 34.5t129.5 12q71 0 126.5 -12t100 -33.5t79.5 -50t63.5 -62t52.5 -70.5t47 -74
q22 -36 45.5 -69.5t55 -59.5t74 -41.5t104.5 -15.5v-192z" />
    <glyph glyph-name="uni06CC_uni06CC.fina" unicode="&#xfbff;&#xfbfd;" horiz-adv-x="2243" 
d="M2243 96q-82 0 -144.5 25t-110.5 64.5t-85 89t-67 97.5q-24 37 -51.5 75t-66.5 68.5t-93 49.5t-130 19q-70 0 -142 -13t-131 -36.5t-96.5 -57t-37.5 -75.5q0 -10 4.5 -18t21 -16.5t48 -19t86.5 -25.5q99 -28 156.5 -53.5t87 -57t37 -73.5t7.5 -103q0 -48 -27 -90t-74 -78
t-110.5 -65.5t-136.5 -53.5t-151.5 -41.5t-156 -29t-150 -17.5t-132.5 -6q-235 0 -355.5 98.5t-120.5 281.5q0 72 16.5 141.5t40.5 133.5t52 119t52 97l123 -58q-20 -37 -43.5 -82t-43.5 -99t-33.5 -117t-13.5 -135q0 -91 80 -139.5t246 -48.5q67 0 152 5t172.5 15.5
t171 26.5t148.5 37t104.5 47t39.5 58q0 15 -5.5 26.5t-24.5 22.5t-54 23t-94 29q-90 25 -143 50t-81.5 55t-37 68.5t-8.5 91.5q0 57 23.5 106.5t64.5 91t95.5 74.5t116.5 55.5t127.5 34.5t129.5 12q71 0 126.5 -12t100 -33.5t79.5 -50t63.5 -62t52.5 -70.5t47 -74
q22 -36 45.5 -69.5t55 -59.5t74 -41.5t104.5 -15.5v-192zM1758 -366h-200v200h200v-200zM2053 -366h-200v200h200v-200z" />
    <glyph glyph-name="uni067E_uni06CC.fina" unicode="&#xfb59;&#xfbfd;" horiz-adv-x="2243" 
d="M2243 96q-82 0 -144.5 25t-110.5 64.5t-85 89t-67 97.5q-24 37 -51.5 75t-66.5 68.5t-93 49.5t-130 19q-70 0 -142 -13t-131 -36.5t-96.5 -57t-37.5 -75.5q0 -10 4.5 -18t21 -16.5t48 -19t86.5 -25.5q99 -28 156.5 -53.5t87 -57t37 -73.5t7.5 -103q0 -48 -27 -90t-74 -78
t-110.5 -65.5t-136.5 -53.5t-151.5 -41.5t-156 -29t-150 -17.5t-132.5 -6q-235 0 -355.5 98.5t-120.5 281.5q0 72 16.5 141.5t40.5 133.5t52 119t52 97l123 -58q-20 -37 -43.5 -82t-43.5 -99t-33.5 -117t-13.5 -135q0 -91 80 -139.5t246 -48.5q67 0 152 5t172.5 15.5
t171 26.5t148.5 37t104.5 47t39.5 58q0 15 -5.5 26.5t-24.5 22.5t-54 23t-94 29q-90 25 -143 50t-81.5 55t-37 68.5t-8.5 91.5q0 57 23.5 106.5t64.5 91t95.5 74.5t116.5 55.5t127.5 34.5t129.5 12q71 0 126.5 -12t100 -33.5t79.5 -50t63.5 -62t52.5 -70.5t47 -74
q22 -36 45.5 -69.5t55 -59.5t74 -41.5t104.5 -15.5v-192zM1750 -326h-200v200h200v-200zM2061 -326h-200v200h200v-200zM1905 -629h-200v200h200v-200z" />
    <glyph glyph-name="uni0649_uni06CC.isol" unicode="&#xfbe8;&#xfbfd;" horiz-adv-x="2361" 
d="M2081 890q77 -154 114 -260.5t37 -163.5q0 -69 -25.5 -130t-70 -107.5t-105.5 -73.5t-131 -27q-20 0 -59 6.5t-88.5 15.5t-104 20.5t-104 20.5t-90 15.5t-60.5 6.5q-37 0 -67 -10t-38 -36q115 -67 175.5 -131t60.5 -138q0 -48 -42.5 -88t-113.5 -72t-162.5 -56
t-190.5 -40t-197 -24t-182 -8q-113 0 -207.5 23.5t-162.5 72t-106.5 121.5t-38.5 172q0 72 16.5 141.5t40.5 133.5t52 119t52 97l123 -58q-20 -37 -43.5 -82t-43.5 -99t-33.5 -117t-13.5 -135q0 -50 29 -87t78.5 -61.5t116 -36.5t141.5 -12q70 0 151.5 2.5t163.5 7.5
t158.5 13t135 18.5t94 24t35.5 30.5q0 14 -74 56.5t-212 112.5l55 151q18 51 45 86.5t59.5 58t69.5 32.5t76 10q22 0 62.5 -6.5t89.5 -15.5t102.5 -20.5t102.5 -20.5t88.5 -15.5t60.5 -6.5q38 0 71.5 11.5t58 31.5t38.5 46.5t14 56.5q0 32 -32.5 116t-101.5 221z" />
    <glyph glyph-name="uni0646_uni06CC.isol" unicode="&#xfee7;&#xfbfd;" horiz-adv-x="2361" 
d="M2081 890q77 -154 114 -260.5t37 -163.5q0 -69 -25.5 -130t-70 -107.5t-105.5 -73.5t-131 -27q-20 0 -59 6.5t-88.5 15.5t-104 20.5t-104 20.5t-90 15.5t-60.5 6.5q-37 0 -67 -10t-38 -36q115 -67 175.5 -131t60.5 -138q0 -48 -42.5 -88t-113.5 -72t-162.5 -56
t-190.5 -40t-197 -24t-182 -8q-113 0 -207.5 23.5t-162.5 72t-106.5 121.5t-38.5 172q0 72 16.5 141.5t40.5 133.5t52 119t52 97l123 -58q-20 -37 -43.5 -82t-43.5 -99t-33.5 -117t-13.5 -135q0 -50 29 -87t78.5 -61.5t116 -36.5t141.5 -12q70 0 151.5 2.5t163.5 7.5
t158.5 13t135 18.5t94 24t35.5 30.5q0 14 -74 56.5t-212 112.5l55 151q18 51 45 86.5t59.5 58t69.5 32.5t76 10q22 0 62.5 -6.5t89.5 -15.5t102.5 -20.5t102.5 -20.5t88.5 -15.5t60.5 -6.5q38 0 71.5 11.5t58 31.5t38.5 46.5t14 56.5q0 32 -32.5 116t-101.5 221zM1789 1075
h-200v200h200v-200z" />
    <glyph glyph-name="uni062A_uni06CC.isol" unicode="&#xfe97;&#xfbfd;" horiz-adv-x="2361" 
d="M2081 890q77 -154 114 -260.5t37 -163.5q0 -69 -25.5 -130t-70 -107.5t-105.5 -73.5t-131 -27q-20 0 -59 6.5t-88.5 15.5t-104 20.5t-104 20.5t-90 15.5t-60.5 6.5q-37 0 -67 -10t-38 -36q115 -67 175.5 -131t60.5 -138q0 -48 -42.5 -88t-113.5 -72t-162.5 -56
t-190.5 -40t-197 -24t-182 -8q-113 0 -207.5 23.5t-162.5 72t-106.5 121.5t-38.5 172q0 72 16.5 141.5t40.5 133.5t52 119t52 97l123 -58q-20 -37 -43.5 -82t-43.5 -99t-33.5 -117t-13.5 -135q0 -50 29 -87t78.5 -61.5t116 -36.5t141.5 -12q70 0 151.5 2.5t163.5 7.5
t158.5 13t135 18.5t94 24t35.5 30.5q0 14 -74 56.5t-212 112.5l55 151q18 51 45 86.5t59.5 58t69.5 32.5t76 10q22 0 62.5 -6.5t89.5 -15.5t102.5 -20.5t102.5 -20.5t88.5 -15.5t60.5 -6.5q38 0 71.5 11.5t58 31.5t38.5 46.5t14 56.5q0 32 -32.5 116t-101.5 221zM1641 1075
h-200v200h200v-200zM1936 1075h-200v200h200v-200z" />
    <glyph glyph-name="uni062B_uni06CC.isol" unicode="&#xfe9b;&#xfbfd;" horiz-adv-x="2361" 
d="M2081 890q77 -154 114 -260.5t37 -163.5q0 -69 -25.5 -130t-70 -107.5t-105.5 -73.5t-131 -27q-20 0 -59 6.5t-88.5 15.5t-104 20.5t-104 20.5t-90 15.5t-60.5 6.5q-37 0 -67 -10t-38 -36q115 -67 175.5 -131t60.5 -138q0 -48 -42.5 -88t-113.5 -72t-162.5 -56
t-190.5 -40t-197 -24t-182 -8q-113 0 -207.5 23.5t-162.5 72t-106.5 121.5t-38.5 172q0 72 16.5 141.5t40.5 133.5t52 119t52 97l123 -58q-20 -37 -43.5 -82t-43.5 -99t-33.5 -117t-13.5 -135q0 -50 29 -87t78.5 -61.5t116 -36.5t141.5 -12q70 0 151.5 2.5t163.5 7.5
t158.5 13t135 18.5t94 24t35.5 30.5q0 14 -74 56.5t-212 112.5l55 151q18 51 45 86.5t59.5 58t69.5 32.5t76 10q22 0 62.5 -6.5t89.5 -15.5t102.5 -20.5t102.5 -20.5t88.5 -15.5t60.5 -6.5q38 0 71.5 11.5t58 31.5t38.5 46.5t14 56.5q0 32 -32.5 116t-101.5 221zM1633 1075
h-200v200h200v-200zM1944 1075h-200v200h200v-200zM1788 1378h-200v200h200v-200z" />
    <glyph glyph-name="uni0628_uni06CC.isol" unicode="&#xfe91;&#xfbfd;" horiz-adv-x="2361" 
d="M2081 890q77 -154 114 -260.5t37 -163.5q0 -69 -25.5 -130t-70 -107.5t-105.5 -73.5t-131 -27q-20 0 -59 6.5t-88.5 15.5t-104 20.5t-104 20.5t-90 15.5t-60.5 6.5q-37 0 -67 -10t-38 -36q115 -67 175.5 -131t60.5 -138q0 -48 -42.5 -88t-113.5 -72t-162.5 -56
t-190.5 -40t-197 -24t-182 -8q-113 0 -207.5 23.5t-162.5 72t-106.5 121.5t-38.5 172q0 72 16.5 141.5t40.5 133.5t52 119t52 97l123 -58q-20 -37 -43.5 -82t-43.5 -99t-33.5 -117t-13.5 -135q0 -50 29 -87t78.5 -61.5t116 -36.5t141.5 -12q70 0 151.5 2.5t163.5 7.5
t158.5 13t135 18.5t94 24t35.5 30.5q0 14 -74 56.5t-212 112.5l55 151q18 51 45 86.5t59.5 58t69.5 32.5t76 10q22 0 62.5 -6.5t89.5 -15.5t102.5 -20.5t102.5 -20.5t88.5 -15.5t60.5 -6.5q38 0 71.5 11.5t58 31.5t38.5 46.5t14 56.5q0 32 -32.5 116t-101.5 221zM2056 -366
h-200v200h200v-200z" />
    <glyph glyph-name="uni06CC_uni06CC.isol" unicode="&#xfbfe;&#xfbfd;" horiz-adv-x="2361" 
d="M2081 890q77 -154 114 -260.5t37 -163.5q0 -69 -25.5 -130t-70 -107.5t-105.5 -73.5t-131 -27q-20 0 -59 6.5t-88.5 15.5t-104 20.5t-104 20.5t-90 15.5t-60.5 6.5q-37 0 -67 -10t-38 -36q115 -67 175.5 -131t60.5 -138q0 -48 -42.5 -88t-113.5 -72t-162.5 -56
t-190.5 -40t-197 -24t-182 -8q-113 0 -207.5 23.5t-162.5 72t-106.5 121.5t-38.5 172q0 72 16.5 141.5t40.5 133.5t52 119t52 97l123 -58q-20 -37 -43.5 -82t-43.5 -99t-33.5 -117t-13.5 -135q0 -50 29 -87t78.5 -61.5t116 -36.5t141.5 -12q70 0 151.5 2.5t163.5 7.5
t158.5 13t135 18.5t94 24t35.5 30.5q0 14 -74 56.5t-212 112.5l55 151q18 51 45 86.5t59.5 58t69.5 32.5t76 10q22 0 62.5 -6.5t89.5 -15.5t102.5 -20.5t102.5 -20.5t88.5 -15.5t60.5 -6.5q38 0 71.5 11.5t58 31.5t38.5 46.5t14 56.5q0 32 -32.5 116t-101.5 221zM1908 -366
h-200v200h200v-200zM2203 -366h-200v200h200v-200z" />
    <glyph glyph-name="uni067E_uni06CC.isol" unicode="&#xfb58;&#xfbfd;" horiz-adv-x="2361" 
d="M2081 890q77 -154 114 -260.5t37 -163.5q0 -69 -25.5 -130t-70 -107.5t-105.5 -73.5t-131 -27q-20 0 -59 6.5t-88.5 15.5t-104 20.5t-104 20.5t-90 15.5t-60.5 6.5q-37 0 -67 -10t-38 -36q115 -67 175.5 -131t60.5 -138q0 -48 -42.5 -88t-113.5 -72t-162.5 -56
t-190.5 -40t-197 -24t-182 -8q-113 0 -207.5 23.5t-162.5 72t-106.5 121.5t-38.5 172q0 72 16.5 141.5t40.5 133.5t52 119t52 97l123 -58q-20 -37 -43.5 -82t-43.5 -99t-33.5 -117t-13.5 -135q0 -50 29 -87t78.5 -61.5t116 -36.5t141.5 -12q70 0 151.5 2.5t163.5 7.5
t158.5 13t135 18.5t94 24t35.5 30.5q0 14 -74 56.5t-212 112.5l55 151q18 51 45 86.5t59.5 58t69.5 32.5t76 10q22 0 62.5 -6.5t89.5 -15.5t102.5 -20.5t102.5 -20.5t88.5 -15.5t60.5 -6.5q38 0 71.5 11.5t58 31.5t38.5 46.5t14 56.5q0 32 -32.5 116t-101.5 221zM1900 -326
h-200v200h200v-200zM2211 -326h-200v200h200v-200zM2055 -629h-200v200h200v-200z" />
    <glyph glyph-name="uni0644_uni0671.isol" unicode="&#xfedf;&#xfb51;" horiz-adv-x="1443" 
d="M1120 1556h154v-1053q0 -71 -23 -129t-63.5 -105.5t-95.5 -86t-119 -70t-134.5 -57.5t-141.5 -48l-154 -49l-44 185q44 15 72 23.5t46.5 14.5t32.5 10t29 9q-10 146 -35 276.5t-69 243t-108.5 206t-152.5 164.5l94 150q98 -79 171 -185.5t124 -233t82.5 -271t45.5 -298.5
q61 24 114 50.5t92 57.5t61 66t22 77v1053zM-16 1442q18 22 33.5 37t30.5 24t31 12.5t36 3.5q32 0 53.5 -15t42.5 -35q36 76 71.5 129t68 88.5t63 56t56.5 31t48 13t38 2.5q29 0 62.5 -8t62 -27.5t47.5 -52.5t19 -84q0 -47 -23.5 -88.5t-62 -76t-87 -61.5t-99 -45.5
t-97.5 -28t-82 -9.5q-32 0 -55 6t-41 15.5t-31.5 21.5t-25.5 24q-6 5 -13 9.5t-15 4.5q-17 0 -28 -6t-25 -23zM315 1438q29 2 64.5 8.5t72.5 18t71.5 27t61.5 34.5t43.5 42t16.5 49q0 12 -9 20.5t-22 13t-29 6.5t-29 2q-17 0 -41.5 -5.5t-55.5 -27t-67.5 -66t-76.5 -122.5z
" />
    <glyph glyph-name="uni0644_uni0671.fina" unicode="&#xfee0;&#xfb51;" horiz-adv-x="1574" 
d="M1116 1556h154v-1053q0 -64 17.5 -105.5t55 -66t94.5 -34t137 -9.5v-192q-78 0 -141.5 7t-113.5 24t-87 45.5t-62 71.5q-41 -47 -95 -85.5t-117 -69t-133.5 -52t-142.5 -33.5l-222 -38l-24 190q89 15 141.5 24t82 14.5t41.5 7.5t20 4q-9 121 -31.5 246.5t-67.5 245.5
t-118 229.5t-185 199.5l94 152q123 -100 205.5 -222t134.5 -256t79 -274t38 -275q53 21 98 47.5t78 58t51.5 68t18.5 77.5v1053zM-16 1442q18 22 33.5 37t30.5 24t31 12.5t36 3.5q32 0 53.5 -15t42.5 -35q36 76 71.5 129t68 88.5t63 56t56.5 31t48 13t38 2.5q29 0 62.5 -8
t62 -27.5t47.5 -52.5t19 -84q0 -47 -23.5 -88.5t-62 -76t-87 -61.5t-99 -45.5t-97.5 -28t-82 -9.5q-32 0 -55 6t-41 15.5t-31.5 21.5t-25.5 24q-6 5 -13 9.5t-15 4.5q-17 0 -28 -6t-25 -23zM315 1438q29 2 64.5 8.5t72.5 18t71.5 27t61.5 34.5t43.5 42t16.5 49q0 12 -9 20.5
t-22 13t-29 6.5t-29 2q-17 0 -41.5 -5.5t-55.5 -27t-67.5 -66t-76.5 -122.5z" />
    <glyph glyph-name="uni06A9_uni06CC.isol" unicode="&#xfb90;&#xfbfd;" horiz-adv-x="2694" 
d="M2644 1443q-84 -30 -178 -75t-191.5 -99t-194.5 -114t-188 -120q92 -54 175.5 -113t146.5 -128t100.5 -150t37.5 -177q0 -66 -23 -117t-61 -88.5t-86 -63t-98 -41t-98.5 -22.5t-85.5 -7q-20 0 -59 6.5t-88.5 15.5t-104 20.5t-104 20.5t-90 15.5t-60.5 6.5q-37 0 -67 -10
t-38 -36q115 -67 175.5 -131t60.5 -138q0 -48 -42.5 -88t-113.5 -72t-162.5 -56t-190.5 -40t-197 -24t-182 -8q-113 0 -207.5 23.5t-162.5 72t-106.5 121.5t-38.5 172q0 72 16.5 141.5t40.5 133.5t52 119t52 97l123 -58q-20 -37 -43.5 -82t-43.5 -99t-33.5 -117t-13.5 -135
q0 -50 29 -87t78.5 -61.5t116 -36.5t141.5 -12q70 0 151.5 2.5t163.5 7.5t158.5 13t135 18.5t94 24t35.5 30.5q0 14 -74 56.5t-212 112.5l55 151q18 51 45 86.5t59.5 58t69.5 32.5t76 10q22 0 62.5 -6.5t89.5 -15.5t102.5 -20.5t102.5 -20.5t88.5 -15.5t60.5 -6.5
q24 0 55.5 3t64.5 10t64.5 18t56 27.5t39.5 38t15 50.5q0 67 -35.5 125t-97 111.5t-144.5 104t-177 103.5l24 256q103 69 212 137.5t216 129t209 110.5t192 82z" />
    <glyph glyph-name="uni06A9_uni06CC.fina" unicode="&#xfb91;&#xfbfd;" horiz-adv-x="2821" 
d="M2821 96q-83 0 -145 23.5t-109.5 62t-82 88t-61.5 101.5q-15 28 -33.5 54t-37.5 51q0 -68 -23 -120.5t-61 -91t-86 -65t-98 -42t-98.5 -22.5t-85.5 -7q-20 0 -59 6.5t-88.5 15.5t-104 20.5t-104 20.5t-90 15.5t-60.5 6.5q-37 0 -67 -10t-38 -36q115 -67 175.5 -131
t60.5 -138q0 -48 -42.5 -88t-113.5 -72t-162.5 -56t-190.5 -40t-197 -24t-182 -8q-113 0 -207.5 23.5t-162.5 72t-106.5 121.5t-38.5 172q0 72 16.5 141.5t40.5 133.5t52 119t52 97l123 -58q-20 -37 -43.5 -82t-43.5 -99t-33.5 -117t-13.5 -135q0 -50 29 -87t78.5 -61.5
t116 -36.5t141.5 -12q70 0 151.5 2.5t163.5 7.5t158.5 13t135 18.5t94 24t35.5 30.5q0 14 -74 56.5t-212 112.5l55 151q18 51 45 86.5t59.5 58t69.5 32.5t76 10q22 0 62.5 -6.5t89.5 -15.5t102.5 -20.5t102.5 -20.5t88.5 -15.5t60.5 -6.5q24 0 55.5 3t64.5 10t64.5 18
t56 27.5t39.5 38t15 50.5q0 67 -35.5 125t-97 111.5t-144.5 104t-177 103.5l24 256q103 69 212 137.5t216 129t209 110.5t192 82l50 -183q-84 -29 -178 -74t-191.5 -99.5t-195 -114.5t-188.5 -120q53 -31 114.5 -69.5t125 -83.5t126.5 -95.5t119.5 -105t104 -111
t79.5 -113.5q18 -32 40 -62.5t52.5 -54t71.5 -38t97 -14.5v-192z" />
    <glyph glyph-name="uni06AF_uni06CC.isol" unicode="&#xfb94;&#xfbfd;" horiz-adv-x="2694" 
d="M2602 1594q-67 -22 -159.5 -54.5t-196.5 -73t-211.5 -86t-204.5 -93.5l-44 119q67 32 138.5 64t144 62t143 57.5t135.5 51.5t121.5 43.5t101.5 34.5zM2594 1268q-55 -14 -135.5 -41.5t-173 -64t-190.5 -79t-187 -86.5q90 -51 169 -103.5t137.5 -114.5t92.5 -138t34 -174
q0 -66 -22.5 -117t-58.5 -88.5t-83 -63t-96 -41t-96.5 -22.5t-84.5 -7q-20 0 -59 6.5t-88.5 15.5t-104 20.5t-104 20.5t-90 15.5t-60.5 6.5q-37 0 -67 -10t-38 -36q115 -67 175.5 -131t60.5 -138q0 -48 -42.5 -88t-113.5 -72t-162.5 -56t-190.5 -40t-197 -24t-182 -8
q-113 0 -207.5 23.5t-162.5 72t-106.5 121.5t-38.5 172q0 72 16.5 141.5t40.5 133.5t52 119t52 97l123 -58q-20 -37 -43.5 -82t-43.5 -99t-33.5 -117t-13.5 -135q0 -50 29 -87t78.5 -61.5t116 -36.5t141.5 -12q70 0 151.5 2.5t163.5 7.5t158.5 13t135 18.5t94 24t35.5 30.5
q0 14 -74 56.5t-212 112.5l55 151q18 51 45 86.5t59.5 58t69.5 32.5t76 10q22 0 62.5 -6.5t89.5 -15.5t102.5 -20.5t102.5 -20.5t88.5 -15.5t60.5 -6.5q24 0 55 3t63 10t62.5 18t54 27.5t38 38t14.5 50.5q0 64 -36 118t-98 103t-145 97t-178 100l20 238q102 56 216 109
t223 97t205.5 76.5t163.5 48.5z" />
    <glyph glyph-name="uni06AF_uni06CC.fina" unicode="&#xfb95;&#xfbfd;" horiz-adv-x="2821" 
d="M2821 96q-85 0 -148 23.5t-111 62t-83.5 88t-63.5 102.5q-29 55 -71 103q0 -68 -22.5 -120.5t-59.5 -91t-84 -64.5t-96.5 -42t-97 -22.5t-84.5 -6.5q-20 0 -59 6.5t-88.5 15.5t-104 20.5t-104 20.5t-90 15.5t-60.5 6.5q-37 0 -67 -10t-38 -36q115 -67 175.5 -131
t60.5 -138q0 -48 -42.5 -88t-113.5 -72t-162.5 -56t-190.5 -40t-197 -24t-182 -8q-113 0 -207.5 23.5t-162.5 72t-106.5 121.5t-38.5 172q0 72 16.5 141.5t40.5 133.5t52 119t52 97l123 -58q-20 -37 -43.5 -82t-43.5 -99t-33.5 -117t-13.5 -135q0 -50 29 -87t78.5 -61.5
t116 -36.5t141.5 -12q70 0 151.5 2.5t163.5 7.5t158.5 13t135 18.5t94 24t35.5 30.5q0 14 -74 56.5t-212 112.5l55 151q18 51 45 86.5t59.5 58t69.5 32.5t76 10q22 0 62.5 -6.5t89.5 -15.5t102.5 -20.5t102.5 -20.5t88.5 -15.5t60.5 -6.5q24 0 55 3t63 10t62.5 18t54 27.5
t38 38t14.5 50.5q0 64 -36 118t-98 103t-145 97t-178 100l20 238q102 56 216 109t223 97t205.5 76.5t163.5 48.5l36 -186q-55 -14 -135.5 -41.5t-173 -64t-190.5 -79t-187 -86.5q80 -46 173 -104t182 -126t165.5 -146t123.5 -164q18 -33 40.5 -63.5t54 -54t74.5 -37.5
t100 -14v-192zM2602 1594q-67 -22 -159.5 -54.5t-196.5 -73t-211.5 -86t-204.5 -93.5l-44 119q67 32 138.5 64t144 62t143 57.5t135.5 51.5t121.5 43.5t101.5 34.5z" />
    <glyph glyph-name="uni0626_uni06CC.isol" unicode="&#xfe8b;&#xfbfd;" horiz-adv-x="2361" 
d="M2081 890q77 -154 114 -260.5t37 -163.5q0 -69 -25.5 -130t-70 -107.5t-105.5 -73.5t-131 -27q-20 0 -59 6.5t-88.5 15.5t-104 20.5t-104 20.5t-90 15.5t-60.5 6.5q-37 0 -67 -10t-38 -36q115 -67 175.5 -131t60.5 -138q0 -48 -42.5 -88t-113.5 -72t-162.5 -56
t-190.5 -40t-197 -24t-182 -8q-113 0 -207.5 23.5t-162.5 72t-106.5 121.5t-38.5 172q0 72 16.5 141.5t40.5 133.5t52 119t52 97l123 -58q-20 -37 -43.5 -82t-43.5 -99t-33.5 -117t-13.5 -135q0 -50 29 -87t78.5 -61.5t116 -36.5t141.5 -12q70 0 151.5 2.5t163.5 7.5
t158.5 13t135 18.5t94 24t35.5 30.5q0 14 -74 56.5t-212 112.5l55 151q18 51 45 86.5t59.5 58t69.5 32.5t76 10q22 0 62.5 -6.5t89.5 -15.5t102.5 -20.5t102.5 -20.5t88.5 -15.5t60.5 -6.5q38 0 71.5 11.5t58 31.5t38.5 46.5t14 56.5q0 32 -32.5 116t-101.5 221zM1956 1174
q-54 -10 -100 -19.5t-99.5 -27t-122.5 -47t-169 -77.5l-44 118q42 21 77 38t67 31q-38 31 -62 69.5t-24 86.5q0 45 22.5 89t56.5 78t74 55t74 21q39 0 68.5 -8.5t53 -23.5t43 -35t39.5 -43l-76 -84q-12 13 -23.5 25t-26 20.5t-33.5 13.5t-45 5q-19 0 -41 -10t-40.5 -25.5
t-31 -36t-12.5 -41.5q0 -26 37.5 -50.5t93.5 -46.5q63 21 117.5 31.5t107.5 22.5z" />
    <glyph glyph-name="uni0626_uni06CC.fina" unicode="&#xfe8c;&#xfbfd;" horiz-adv-x="2243" 
d="M2243 96q-82 0 -144.5 25t-110.5 64.5t-85 89t-67 97.5q-24 37 -51.5 75t-66.5 68.5t-93 49.5t-130 19q-70 0 -142 -13t-131 -36.5t-96.5 -57t-37.5 -75.5q0 -10 4.5 -18t21 -16.5t48 -19t86.5 -25.5q99 -28 156.5 -53.5t87 -57t37 -73.5t7.5 -103q0 -48 -27 -90t-74 -78
t-110.5 -65.5t-136.5 -53.5t-151.5 -41.5t-156 -29t-150 -17.5t-132.5 -6q-235 0 -355.5 98.5t-120.5 281.5q0 72 16.5 141.5t40.5 133.5t52 119t52 97l123 -58q-20 -37 -43.5 -82t-43.5 -99t-33.5 -117t-13.5 -135q0 -91 80 -139.5t246 -48.5q67 0 152 5t172.5 15.5
t171 26.5t148.5 37t104.5 47t39.5 58q0 15 -5.5 26.5t-24.5 22.5t-54 23t-94 29q-90 25 -143 50t-81.5 55t-37 68.5t-8.5 91.5q0 57 23.5 106.5t64.5 91t95.5 74.5t116.5 55.5t127.5 34.5t129.5 12q71 0 126.5 -12t100 -33.5t79.5 -50t63.5 -62t52.5 -70.5t47 -74
q22 -36 45.5 -69.5t55 -59.5t74 -41.5t104.5 -15.5v-192zM1760 1174q-54 -10 -100 -19.5t-99.5 -27t-122.5 -47t-169 -77.5l-44 118q42 21 77 38t67 31q-38 31 -62 69.5t-24 86.5q0 45 22.5 89t56.5 78t74 55t74 21q39 0 68.5 -8.5t53 -23.5t43 -35t39.5 -43l-76 -84
q-12 13 -23.5 25t-26 20.5t-33.5 13.5t-45 5q-19 0 -41 -10t-40.5 -25.5t-31 -36t-12.5 -41.5q0 -26 37.5 -50.5t93.5 -46.5q63 21 117.5 31.5t107.5 22.5z" />
    <glyph glyph-name="uniFE8D" unicode="&#x627;" horiz-adv-x="608" arabic-form="isolated" 
d="M374 96h-154v1460h154v-1460z" />
    <glyph glyph-name="uniFE8E" unicode="&#x627;" horiz-adv-x="660" arabic-form="final" 
d="M660 96h-58q-112 0 -185.5 21.5t-117 65t-61.5 110.5t-18 159v1104h154v-1104q0 -42 10.5 -73t36.5 -51t70 -30t111 -10h58v-192z" />
    <glyph glyph-name="uniFDFC" unicode="&#xfdfc;" horiz-adv-x="2897" arabic-form="isolated" 
d="M1549 -58h-200v200h200v-200zM1869 -58h-200v200h200v-200zM1287 563q0 -200 -47.5 -342t-139 -232t-224 -132t-301.5 -42q-113 0 -198 28.5t-142 79t-86 120t-29 152.5q0 71 17 141t42.5 134t54 119.5t52.5 97.5l126 -59q-20 -37 -43.5 -82t-43 -99t-32.5 -117t-13 -135
q0 -41 18 -75.5t55 -59.5t92 -39t130 -14q145 0 250 25.5t173.5 87.5t101.5 165.5t33 259.5v1089h154v-1071zM2200 1100q58 -163 80 -269t22 -162q0 -66 -26.5 -126t-78 -105.5t-127.5 -72t-176 -26.5q-112 0 -185.5 21.5t-117 65t-61.5 110.5t-18 159v939h154v-939
q0 -42 10.5 -73t36.5 -51t70 -30t111 -10q65 0 112.5 11.5t78 30.5t45.5 44t15 52q0 32 -19.5 124.5t-70.5 236.5zM2000 82q132 47 245 106t195.5 126.5t129.5 142.5t47 154q0 47 -10 101.5t-26.5 106.5t-36.5 96.5t-41 71.5l121 119q27 -35 54 -93t49 -126t36 -140t14 -136
q0 -116 -56 -221.5t-153.5 -196t-230.5 -165.5t-287 -129z" />
    <glyph glyph-name="uniFB92" unicode="&#x6af;" horiz-adv-x="2208" arabic-form="isolated" 
d="M2127 1591q-67 -22 -159.5 -54.5t-196.5 -73t-211.5 -86t-204.5 -93.5l-44 119q67 32 138.5 64t144 62t143 57.5t135.5 51.5t121.5 43.5t101.5 34.5zM293 460q0 -55 41 -95t113 -65.5t169.5 -37.5t210.5 -12q91 0 191.5 2.5t199 10.5t188 23t157.5 39t108.5 59t40.5 83
q0 64 -36 118t-98 103t-145 97t-178 100l20 238q102 56 216 109t223 97t205.5 76.5t163.5 48.5l36 -186q-55 -14 -135.5 -41.5t-173 -64t-190.5 -79t-187 -86.5q90 -51 169 -103.5t137.5 -114.5t92.5 -138t34 -174q0 -91 -47.5 -156.5t-127.5 -111t-185 -73t-220.5 -43
t-234 -20.5t-224.5 -5q-145 0 -271 23.5t-219.5 72.5t-147 125t-53.5 181q0 45 8.5 97t21.5 106t29 107t32 100l154 -34q-14 -44 -29.5 -95.5t-28.5 -102.5t-21.5 -97.5t-8.5 -80.5z" />
    <glyph glyph-name="uni06AF.fina" unicode="&#x6af;" horiz-adv-x="2338" arabic-form="final" 
d="M2129 1594q-67 -22 -159.5 -54.5t-196.5 -73t-211.5 -86t-204.5 -93.5l-44 119q67 32 138.5 64t144 62t143 57.5t135.5 51.5t121.5 43.5t101.5 34.5zM293 460q0 -55 41.5 -95t114 -65.5t170 -37.5t210.5 -12q91 0 191.5 2.5t199 10.5t188 23t157.5 39t108.5 59t40.5 83
q0 64 -36 118t-98 103t-145 97t-178 100l20 238q102 56 216 109t223 97t205.5 76.5t163.5 48.5l36 -186q-55 -14 -135.5 -41.5t-173 -64t-190.5 -79t-187 -86.5q80 -46 173 -104t182 -126t165.5 -146t123.5 -164q18 -33 39 -63.5t51 -54t71 -37.5t98 -14v-192
q-84 0 -145.5 23.5t-107.5 62.5t-80.5 88.5t-62.5 101.5q-30 54 -74 101q-1 -94 -48.5 -161.5t-127.5 -113.5t-185 -73.5t-220 -42.5t-233.5 -19.5t-224.5 -4.5q-145 0 -271.5 23.5t-220 72.5t-147.5 125t-54 181q0 45 8.5 97t21.5 106t29 107t32 100l154 -34
q-14 -44 -29.5 -95.5t-28.5 -102.5t-21.5 -97.5t-8.5 -80.5z" />
    <glyph glyph-name="uni06AF.init" unicode="&#x6af;" horiz-adv-x="1020" arabic-form="initial" 
d="M927 1594q-67 -22 -159.5 -54.5t-196.5 -73t-211.5 -86t-204.5 -93.5l-44 119q67 32 138.5 64t144 62t143 57.5t135.5 51.5t121.5 43.5t101.5 34.5zM0 96q-36 0 -70 12v180h70h70q82 0 161.5 10.5t142 32.5t100.5 56t38 80q0 64 -36 118t-98 103t-145 97t-178 100l20 238
q102 56 216 109t223 97t205.5 76.5t163.5 48.5l36 -186q-55 -14 -135.5 -41.5t-173 -64t-190.5 -79t-187 -86.5q90 -51 169 -103.5t137.5 -114.5t92.5 -138t34 -174q0 -64 -23.5 -116t-65.5 -93.5t-99 -72t-123 -50t-139 -29.5t-146 -10h-70z" />
    <glyph glyph-name="uni06AF.medi" unicode="&#x6af;" horiz-adv-x="1151" arabic-form="medial" 
d="M927 1594q-67 -22 -159.5 -54.5t-196.5 -73t-211.5 -86t-204.5 -93.5l-44 119q67 32 138.5 64t144 62t143 57.5t135.5 51.5t121.5 43.5t101.5 34.5zM1151 96q-88 0 -152.5 23.5t-112.5 62t-83 88t-63 102.5q-15 29 -33.5 53.5t-40.5 49.5q0 -66 -23.5 -119.5t-65.5 -95.5
t-99 -73t-123 -51t-139 -30t-146 -10h-70q-36 0 -70 12v180h70h70q82 0 161.5 10.5t142 32.5t100.5 56t38 80q0 64 -36 118t-98 103t-145 97t-178 100l20 238q102 56 216 109t223 97t205.5 76.5t163.5 48.5l36 -186q-55 -14 -135.5 -41.5t-173 -64t-190.5 -79t-187 -86.5
q80 -46 173 -104t182 -126t165.5 -146t123.5 -164q18 -33 40 -63.5t54 -54t76 -37.5t104 -14v-192z" />
    <glyph glyph-name="uni0671.isol" unicode="&#x671;" horiz-adv-x="720" arabic-form="isolated" 
d="M-16 1442q18 22 33.5 37t30.5 24t31 12.5t36 3.5q32 0 53.5 -15t42.5 -35q36 76 71.5 129t68 88.5t63 56t56.5 31t48 13t38 2.5q29 0 62.5 -8t62 -27.5t47.5 -52.5t19 -84q0 -47 -23.5 -88.5t-62 -76t-87 -61.5t-99 -45.5t-97.5 -28t-82 -9.5q-32 0 -55 6t-41 15.5
t-31.5 21.5t-25.5 24q-6 5 -13 9.5t-15 4.5q-17 0 -28 -6t-25 -23zM315 1438q29 2 64.5 8.5t72.5 18t71.5 27t61.5 34.5t43.5 42t16.5 49q0 12 -9 20.5t-22 13t-29 6.5t-29 2q-17 0 -41.5 -5.5t-55.5 -27t-67.5 -66t-76.5 -122.5zM437 96h-154v1103h154v-1103z" />
    <glyph glyph-name="uni0671.fina" unicode="&#x671;" horiz-adv-x="786" arabic-form="final" 
d="M786 96h-121q-112 0 -185.5 21.5t-117 65t-61.5 110.5t-18 159v747h154v-747q0 -42 10.5 -73t36.5 -51t70 -30t111 -10h121v-192zM-16 1442q18 22 33.5 37t30.5 24t31 12.5t36 3.5q32 0 53.5 -15t42.5 -35q36 76 71.5 129t68 88.5t63 56t56.5 31t48 13t38 2.5
q29 0 62.5 -8t62 -27.5t47.5 -52.5t19 -84q0 -47 -23.5 -88.5t-62 -76t-87 -61.5t-99 -45.5t-97.5 -28t-82 -9.5q-32 0 -55 6t-41 15.5t-31.5 21.5t-25.5 24q-6 5 -13 9.5t-15 4.5q-17 0 -28 -6t-25 -23zM315 1438q29 2 64.5 8.5t72.5 18t71.5 27t61.5 34.5t43.5 42t16.5 49
q0 12 -9 20.5t-22 13t-29 6.5t-29 2q-17 0 -41.5 -5.5t-55.5 -27t-67.5 -66t-76.5 -122.5z" />
    <glyph glyph-name="uni067E.isol" unicode="&#x67e;" horiz-adv-x="2208" arabic-form="isolated" 
d="M293 460q0 -55 41.5 -95t114 -65.5t170 -37.5t210.5 -12q95 0 192 6.5t190 17.5t180.5 25t165.5 29t143.5 30.5t114.5 28.5q57 16 83 29.5t26 29.5q0 66 -23.5 164t-68.5 242l160 14q25 -79 42 -138.5t27.5 -107.5t15 -89.5t4.5 -84.5q0 -57 -14.5 -95.5t-42.5 -65.5
t-70 -45.5t-97 -33.5q-53 -15 -123 -31.5t-152.5 -33t-174 -31.5t-188 -26.5t-195.5 -18.5t-195 -7q-145 0 -271.5 23.5t-220 72.5t-147.5 125t-54 181q0 45 8.5 97t21.5 106t29 107t32 100l154 -34q-14 -44 -29.5 -95.5t-28.5 -102.5t-21.5 -97.5t-8.5 -80.5zM1000 -326
h-200v200h200v-200zM1311 -326h-200v200h200v-200zM1155 -629h-200v200h200v-200z" />
    <glyph glyph-name="uni067E.fina" unicode="&#x67e;" horiz-adv-x="2338" arabic-form="final" 
d="M136 460q0 45 8.5 97t21.5 106t29 107t32 100l154 -34q-14 -44 -29.5 -95.5t-28.5 -102.5t-21.5 -97.5t-8.5 -80.5q0 -55 41.5 -95t114 -65.5t170 -37.5t210.5 -12q145 0 287.5 12.5t269 33.5t230 48t171.5 57q36 16 61.5 46t45 68t33 79.5t25.5 79.5l17 55l137 -55
q-21 -70 -33 -113.5t-18 -70t-7.5 -41t-1.5 -25.5q0 -29 13.5 -54t46.5 -43t89.5 -28.5t142.5 -10.5v-192q-92 0 -161.5 12.5t-120 35.5t-83.5 54.5t-51 70.5q-34 -27 -95.5 -53t-144.5 -49.5t-183 -43.5t-210 -34.5t-227 -22.5t-233 -8q-145 0 -271.5 23.5t-220 72.5
t-147.5 125t-54 181zM1000 -326h-200v200h200v-200zM1311 -326h-200v200h200v-200zM1155 -629h-200v200h200v-200z" />
    <glyph glyph-name="uni067E.init" unicode="&#x67e;" horiz-adv-x="704" arabic-form="initial" 
d="M369 426q0 66 -23.5 164t-68.5 242l160 14q25 -79 42 -138.5t27.5 -107.5t15 -89.5t4.5 -84.5q0 -66 -32 -126t-90.5 -105.5t-140 -72t-181.5 -26.5h-82q-36 0 -70 12v180h70h82q65 0 118 11.5t90.5 30.5t58 44t20.5 52zM200 -326h-200v200h200v-200zM511 -326h-200v200
h200v-200zM355 -629h-200v200h200v-200z" />
    <glyph glyph-name="uni067E.medi" unicode="&#x67e;" horiz-adv-x="704" arabic-form="medial" 
d="M704 96q-73 0 -129.5 7t-100 21t-75 34t-53.5 47q-48 -53 -124.5 -81t-185.5 -28h-36q-36 0 -70 12v180h70h36q125 0 184.5 45t59.5 119v222h154v-222q0 -38 10 -68.5t39.5 -51.5t82 -32.5t138.5 -11.5v-192zM200 -326h-200v200h200v-200zM511 -326h-200v200h200v-200z
M355 -629h-200v200h200v-200z" />
    <glyph glyph-name="uni0686.isol" unicode="&#x686;" horiz-adv-x="1508" arabic-form="isolated" 
d="M1304 -318q-38 -12 -94 -28.5t-127.5 -31t-156 -24.5t-180.5 -10q-74 0 -147.5 10.5t-141 35.5t-126 67t-101.5 104.5t-67.5 148.5t-24.5 200q0 77 25 145.5t68 128t101.5 110t126 92.5t141 75.5t146.5 59.5l-258 140q-32 17 -49.5 23.5t-35.5 6.5q-7 0 -18.5 -7
t-19.5 -15l-136 -147l-91 89l116 188q9 15 24 30t34 27t40.5 19.5t43.5 7.5q17 0 34 -2.5t36.5 -8.5t42 -16t51.5 -25l329 -178q28 -15 68.5 -24t84.5 -13.5t86 -5.5t73 -1h144v-192h-129q-45 0 -108.5 -6.5t-137 -20.5t-151.5 -35.5t-152.5 -51.5t-141.5 -69t-117.5 -88
t-80 -107.5t-29.5 -128.5q0 -75 18 -132t49.5 -98.5t74.5 -69t92.5 -44t104 -23.5t109.5 -7q90 0 170 6t146 15t117.5 20t84.5 22zM800 212h-180v180h180v-180zM1080 212h-180v180h180v-180zM940 -61h-180v180h180v-180z" />
    <glyph glyph-name="uni0686.fina" unicode="&#x686;" horiz-adv-x="1508" arabic-form="final" 
d="M1304 -318q-38 -12 -94 -28.5t-127.5 -31t-156 -24.5t-180.5 -10q-74 0 -147.5 10.5t-141 35.5t-126 67t-101.5 104.5t-67.5 148.5t-24.5 200q0 77 25 145.5t68 128t101.5 110t126 92.5t141 75.5t146.5 59.5l-258 140q-32 17 -49.5 23.5t-35.5 6.5q-7 0 -18.5 -7
t-19.5 -15l-136 -147l-91 89l116 188q9 15 24 30t34 27t40.5 19.5t43.5 7.5q17 0 34 -2.5t36.5 -8.5t42 -16t51.5 -25l329 -178q28 -15 68.5 -24t84.5 -13.5t86 -5.5t73 -1h144v-192h-154l69 -194q13 -38 31.5 -71t47 -57t69.5 -37.5t100 -13.5v-192q-92 0 -157 23.5
t-110.5 66.5t-75 102.5t-48.5 130.5l-62 229q-74 -10 -159 -29.5t-169 -48.5t-161.5 -69t-137 -91.5t-95 -115t-35.5 -140.5q0 -75 18 -132t49.5 -98.5t74.5 -69t92.5 -44t104 -23.5t109.5 -7q90 0 170 6t146 15t117.5 20t84.5 22zM720 192h-180v180h180v-180zM1000 192
h-180v180h180v-180zM860 -81h-180v180h180v-180z" />
    <glyph glyph-name="uni0686.init" unicode="&#x686;" horiz-adv-x="1508" arabic-form="initial" 
d="M1365 449h-125q-38 0 -70 -7.5t-60 -20.5t-52.5 -30.5t-47.5 -36.5q-24 -19 -61 -45.5t-84 -55.5t-100.5 -57t-110.5 -50t-114.5 -36t-110.5 -14h-429q-36 0 -70 12v180h70h429q63 0 132.5 23t135 55.5t120.5 68.5t89 62q-14 5 -29 12.5t-26 13.5l-345 202
q-31 18 -49.5 24t-34.5 6q-13 0 -29.5 -7.5t-26.5 -18.5l-130 -143l-96 93l123 184q28 41 73.5 62.5t85.5 21.5q32 0 71.5 -12.5t87.5 -40.5l344 -202q29 -17 62 -27.5t76 -15.5t99.5 -6.5t131.5 -1.5h71v-192zM440 -326h-200v200h200v-200zM751 -326h-200v200h200v-200z
M595 -629h-200v200h200v-200z" />
    <glyph glyph-name="uni0686.medi" unicode="&#x686;" horiz-adv-x="1539" arabic-form="medial" 
d="M1539 96q-119 0 -197.5 10t-131 37.5t-85.5 76.5t-60 126l-16 43q-30 -23 -70.5 -53.5t-89.5 -63t-104.5 -64.5t-115.5 -56.5t-122 -40t-124 -15.5h-423q-36 0 -70 12v180h70h423q63 0 132.5 23t135 55.5t120.5 68.5t89 62q-14 5 -29 12.5t-26 13.5l-345 202
q-31 18 -49.5 24t-34.5 6q-13 0 -29.5 -7.5t-26.5 -18.5l-130 -143l-96 93l123 184q28 41 73.5 62.5t85.5 21.5q32 0 71.5 -12.5t87.5 -40.5l344 -202q29 -17 62 -27.5t76 -15.5t99.5 -6.5t131.5 -1.5h71v-192h-125q-15 0 -29 -1.5t-28 -3.5l15 -28q18 -35 41.5 -59
t62 -39.5t97 -22.5t146.5 -7v-192zM440 -326h-200v200h200v-200zM751 -326h-200v200h200v-200zM595 -629h-200v200h200v-200z" />
    <glyph glyph-name="uni0698.isol" unicode="&#x698;" horiz-adv-x="1078" arabic-form="isolated" 
d="M82 -276q88 31 174 68t164 78t144 86.5t114 94t75.5 99t27.5 103.5q0 47 -10 101.5t-26.5 106.5t-36.5 96.5t-41 71.5l121 119q27 -35 54 -93t49 -126t36 -140t14 -136q0 -77 -31.5 -150t-87 -140t-132 -127.5t-166 -114t-189.5 -99t-203 -81.5zM522 1075h-200v200h200
v-200zM833 1075h-200v200h200v-200zM677 1378h-200v200h200v-200z" />
    <glyph glyph-name="uni0698.fina" unicode="&#x698;" horiz-adv-x="1256" arabic-form="final" 
d="M1256 96q-118 0 -191 20t-122 57q-15 -76 -57 -142t-103 -123.5t-137 -107t-159 -93.5t-169 -83t-167 -74l-65 171q79 39 163 77.5t163 79t149.5 85t123 94t83.5 106.5t31 123q0 50 -5 100t-13.5 96.5t-20 88.5t-24.5 76l149 58l64 -224q12 -42 28 -77t48 -61t86.5 -40.5
t144.5 -14.5v-192zM522 1075h-200v200h200v-200zM833 1075h-200v200h200v-200zM677 1378h-200v200h200v-200z" />
    <glyph glyph-name="uni06A9.isol" unicode="&#x6a9;" horiz-adv-x="2208" arabic-form="isolated" 
d="M293 460q0 -55 41.5 -95t114 -65.5t170 -37.5t210.5 -12q91 0 191.5 3t199 11t188 22.5t157 38.5t108 58.5t40.5 83.5q0 67 -35.5 125t-97 111.5t-144.5 104t-177 103.5l24 256q103 69 212 137.5t216 129t209 110.5t192 82l50 -183q-84 -30 -178 -75t-191.5 -99
t-194.5 -114t-188 -120q92 -54 175.5 -113t146.5 -128t100.5 -150t37.5 -177q0 -91 -47.5 -156.5t-127.5 -111t-185.5 -73t-221 -43t-234.5 -20.5t-225 -5q-145 0 -271.5 23.5t-220 72.5t-147.5 125t-54 181q0 45 8.5 97t21.5 106t29 107t32 100l154 -34
q-14 -44 -29.5 -95.5t-28.5 -102.5t-21.5 -97.5t-8.5 -80.5z" />
    <glyph glyph-name="uni06A9.fina" unicode="&#x6a9;" horiz-adv-x="2338" arabic-form="final" 
d="M136 460q0 45 8.5 97t21.5 106t29 107t32 100l154 -34q-14 -44 -29.5 -95.5t-28.5 -102.5t-21.5 -97.5t-8.5 -80.5q0 -55 41.5 -95t114 -65.5t170 -37.5t210.5 -12q91 0 191.5 3t199 11t188 22.5t157 38.5t108 58.5t40.5 83.5q0 67 -35.5 125t-97 111.5t-144.5 104
t-177 103.5l24 256q103 69 212 137.5t216 129t209 110.5t192 82l50 -183q-84 -29 -178 -74t-191.5 -99.5t-195 -114.5t-188.5 -120q53 -31 114.5 -69.5t125 -83.5t126.5 -95.5t119.5 -105t104 -111t79.5 -113.5q18 -32 39.5 -62.5t52 -54t71.5 -38t97 -14.5v-192
q-81 0 -143 24t-109.5 63t-82.5 88.5t-62 99.5q-14 26 -33 52.5t-40 49.5q-1 -94 -48.5 -161.5t-127.5 -113.5t-185 -73.5t-220 -42.5t-233.5 -19.5t-224.5 -4.5q-145 0 -271.5 23.5t-220 72.5t-147.5 125t-54 181z" />
    <glyph glyph-name="uni06A9.init" unicode="&#x6a9;" horiz-adv-x="1020" arabic-form="initial" 
d="M0 96q-36 0 -70 12v180h70h70q82 0 163 10.5t144.5 32.5t103 56t39.5 80q0 67 -35.5 125t-97 111.5t-144.5 104t-177 103.5l24 256q103 69 212 137.5t216 129t209 110.5t192 82l50 -183q-84 -30 -178 -75t-191.5 -99t-194.5 -114t-188 -120q92 -54 175.5 -113t146.5 -128
t100.5 -150t37.5 -177q0 -64 -24.5 -116t-67.5 -93.5t-101.5 -72t-125.5 -50t-141 -29.5t-147 -10h-70z" />
    <glyph glyph-name="uni06A9.medi" unicode="&#x6a9;" horiz-adv-x="1151" arabic-form="medial" 
d="M1151 96q-85 0 -148 23.5t-110.5 62t-82.5 88t-62 101.5q-15 28 -34 54t-39 51q0 -66 -24.5 -120t-67 -96t-100.5 -73t-125.5 -51t-141 -30t-146.5 -10h-70q-36 0 -70 12v180h70h70q82 0 163 10.5t144.5 32.5t103 56t39.5 80q0 67 -35.5 125t-97 111.5t-144.5 104
t-177 103.5l24 256q103 69 212 137.5t216 129t209 110.5t192 82l50 -183q-84 -29 -178 -74t-191.5 -99.5t-195 -114.5t-188.5 -120q53 -31 114.5 -69.5t125 -83.5t126.5 -95.5t119.5 -105t104 -111t79.5 -113.5q18 -32 40 -62.5t53 -54t73 -38t100 -14.5v-192z" />
    <glyph glyph-name="uni06C0.isol" unicode="&#x6c0;" horiz-adv-x="1095" arabic-form="isolated" 
d="M437 994q54 -20 116.5 -51.5t124 -72t118 -90t100 -105t69.5 -116.5t26 -126q0 -48 -22.5 -93.5t-61 -85.5t-89 -73.5t-107 -57.5t-115.5 -37.5t-113 -13.5q-77 0 -143.5 25t-115.5 68.5t-76.5 103t-27.5 129.5q0 50 16.5 108.5t43.5 118t61 118t69.5 108t68.5 87
t58 56.5zM467 779q-32 -37 -66 -86t-62.5 -100.5t-46.5 -102.5t-18 -92q0 -29 16 -53.5t44 -42.5t66.5 -28t82.5 -10q57 0 119 13.5t114.5 37t86.5 54t34 64.5q0 49 -34 98.5t-87.5 94.5t-119.5 84.5t-129 68.5zM693 1254q-54 -10 -100 -19.5t-99.5 -27t-122.5 -47
t-169 -77.5l-44 118q42 21 77 38t67 31q-38 31 -62 69.5t-24 86.5q0 45 22.5 89t56.5 78t74 55t74 21q39 0 68.5 -8.5t53 -23.5t43 -35t39.5 -43l-76 -84q-12 13 -23.5 25t-26 20.5t-33.5 13.5t-45 5q-19 0 -41 -10t-40.5 -25.5t-31 -36t-12.5 -41.5q0 -26 37.5 -50.5
t93.5 -46.5q63 21 117.5 31.5t107.5 22.5z" />
    <glyph glyph-name="uni06C0.fina" unicode="&#x6c0;" horiz-adv-x="1168" arabic-form="final" 
d="M1168 96q-60 0 -118.5 5t-110 28.5t-95 72t-74.5 135.5l-28 -127q-65 3 -134.5 7.5t-136 14.5t-125.5 28t-103.5 48t-70.5 74t-26 106q0 86 35.5 163t98 141.5t148.5 115.5t187 87l-33 146l150 42l165 -726q14 -63 41.5 -97.5t63.5 -50.5t78.5 -18.5t87.5 -2.5v-192z
M657 809q-77 -27 -142.5 -62t-113 -76t-74.5 -87.5t-27 -95.5q0 -25 40 -40.5t104 -24.5t144.5 -13.5t161.5 -7.5zM673 1344q-54 -10 -100 -19.5t-99.5 -27t-122.5 -47t-169 -77.5l-44 118q42 21 77 38t67 31q-38 31 -62 69.5t-24 86.5q0 45 22.5 89t56.5 78t74 55t74 21
q39 0 68.5 -8.5t53 -23.5t43 -35t39.5 -43l-76 -84q-12 13 -23.5 25t-26 20.5t-33.5 13.5t-45 5q-19 0 -41 -10t-40.5 -25.5t-31 -36t-12.5 -41.5q0 -26 37.5 -50.5t93.5 -46.5q63 21 117.5 31.5t107.5 22.5z" />
    <glyph glyph-name="uni0649.init" unicode="&#x649;" horiz-adv-x="651" arabic-form="initial" 
d="M369 426q0 66 -23.5 164t-68.5 242l160 14q25 -79 42 -138.5t27.5 -107.5t15 -89.5t4.5 -84.5q0 -66 -32 -126t-90.5 -105.5t-140 -72t-181.5 -26.5h-82q-36 0 -70 12v180h70h82q65 0 118 11.5t90.5 30.5t58 44t20.5 52z" />
    <glyph glyph-name="uni0649.medi" unicode="&#x649;" horiz-adv-x="704" arabic-form="medial" 
d="M704 96q-73 0 -129.5 7t-100 21t-75 34t-53.5 47q-48 -53 -124.5 -81t-185.5 -28h-36q-36 0 -70 12v180h70h36q125 0 184.5 45t59.5 119v222h154v-222q0 -38 10 -68.5t39.5 -51.5t82 -32.5t138.5 -11.5v-192z" />
    <glyph glyph-name="uni06CC.isol" unicode="&#x6cc;" horiz-adv-x="1793" arabic-form="isolated" 
d="M1560 512q-38 61 -76.5 88t-79.5 27q-35 0 -71.5 -10.5t-71.5 -27.5t-66 -40t-54.5 -48t-37 -50.5t-13.5 -48.5q0 -10 5 -18t22 -16.5t48 -19t84 -25.5q93 -27 150.5 -53t90 -58.5t43.5 -74.5t11 -101q0 -64 -47.5 -117.5t-126 -95.5t-178.5 -73.5t-205 -52.5
t-206.5 -31.5t-182.5 -10.5q-235 0 -359.5 98.5t-124.5 281.5q0 71 17.5 141t43 134t54.5 119.5t53 97.5l126 -59q-20 -37 -43.5 -82t-43.5 -99t-33.5 -117t-13.5 -135q0 -91 79.5 -139.5t244.5 -48.5q67 0 151.5 5t172 15.5t170.5 26.5t148 37t104.5 47t39.5 58
q0 15 -5.5 26.5t-24.5 22.5t-54 23t-93 29q-90 25 -144 50t-83 55t-38 68.5t-9 91.5q0 42 20.5 90t55.5 94.5t82 89t99.5 75t107 52t106.5 19.5q75 0 147.5 -49t138.5 -155z" />
    <glyph glyph-name="uni06CC.fina" unicode="&#x6cc;" horiz-adv-x="1675" arabic-form="final" 
d="M1675 96q-63 0 -113 5.5t-95 13t-88.5 16.5t-91.5 18q94 -63 142.5 -123.5t48.5 -125.5q0 -48 -39 -87.5t-104 -72t-150.5 -57t-179 -40.5t-189 -24.5t-179.5 -8.5q-113 0 -209 23.5t-165.5 72t-109 121.5t-39.5 172q0 71 17.5 141t43 134t54.5 119.5t53 97.5l126 -59
q-20 -37 -43.5 -82t-43.5 -99t-33.5 -117t-13.5 -135q0 -50 28.5 -87t78 -61.5t115.5 -36.5t141 -12q69 0 146.5 2.5t154 8t146.5 13t123.5 18.5t85 25t31.5 31q0 39 -61.5 90t-198.5 120l92 208q66 0 128 -4.5t124 -10.5t127.5 -10.5t139.5 -4.5v-192z" />
    <glyph glyph-name="uni06CC.init" unicode="&#x6cc;" horiz-adv-x="704" arabic-form="initial" 
d="M369 426q0 66 -23.5 164t-68.5 242l160 14q25 -79 42 -138.5t27.5 -107.5t15 -89.5t4.5 -84.5q0 -66 -32 -126t-90.5 -105.5t-140 -72t-181.5 -26.5h-82q-36 0 -70 12v180h70h82q65 0 118 11.5t90.5 30.5t58 44t20.5 52zM208 -366h-200v200h200v-200zM503 -366h-200v200
h200v-200z" />
    <glyph glyph-name="uni06CC.medi" unicode="&#x6cc;" horiz-adv-x="704" arabic-form="medial" 
d="M704 96q-73 0 -129.5 7t-100 21t-75 34t-53.5 47q-48 -53 -124.5 -81t-185.5 -28h-36q-36 0 -70 12v180h70h36q125 0 184.5 45t59.5 119v222h154v-222q0 -38 10 -68.5t39.5 -51.5t82 -32.5t138.5 -11.5v-192zM208 -366h-200v200h200v-200zM503 -366h-200v200h200v-200z
" />
    <glyph glyph-name="uni0020_uni064C_uni0651" unicode="&#xfc5e;" horiz-adv-x="651" arabic-form="isolated" 
d="M632 1000q0 -37 -8.5 -72t-26.5 -62t-47.5 -43.5t-71.5 -16.5q-10 0 -24.5 5.5t-30 18.5t-30.5 34.5t-25 52.5q-6 -35 -17.5 -69t-30 -61t-45 -43.5t-63.5 -16.5q-39 0 -65.5 19.5t-42.5 50t-23.5 69t-8.5 76.5l-3 77l56 14l3 -92q1 -25 5 -49.5t13.5 -43.5t25.5 -31
t40 -12q34 0 56 21t34.5 53.5t17 70t4.5 70.5v71l54 20q0 -24 6 -63t18 -76t31.5 -63.5t48.5 -26.5q24 0 41 13t27 35t14.5 49t4.5 56q0 15 -1 35t-2.5 39.5t-3.5 36.5t-3 26l62 15zM625 1367q-29 11 -57 19t-54 18q-34 -52 -86 -96t-110.5 -79t-119 -62t-111.5 -45
q-4 14 -7.5 25t-6.5 20.5t-6.5 19.5t-6.5 23q24 2 52.5 13.5t45.5 19.5q2 12 2 20.5v15.5q0 21 -5 45t-18.5 45t-37.5 34.5t-61 13.5q-23 0 -45 -7q-7 14 -12.5 23t-11 17t-11.5 16.5t-12 21.5q20 6 39 8.5t37 2.5q41 0 76 -16.5t60.5 -47t40.5 -75t17 -99.5q26 11 61 31.5
t69 44.5t63 48.5t43 43.5q-24 7 -54 13t-60.5 16.5t-58 28t-46.5 47.5q8 59 32.5 109t60.5 86t81 56.5t95 21.5q18 -9 35.5 -25t30.5 -37t21 -46t8 -52q0 -35 -4.5 -61t-11.5 -46.5t-15.5 -38t-16.5 -33.5q21 -10 37 -14t39 -9v-78zM486 1488q18 30 29.5 60t11.5 48
q0 44 -17 76t-55 47q-60 0 -96 -38t-55 -109q17 -17 36 -28t40.5 -20t47.5 -17t58 -19z" />
    <glyph glyph-name="uni0020_uni064D_uni0651" unicode="&#xfc5f;" horiz-adv-x="651" arabic-form="isolated" 
d="M550 1619q0 -37 -8.5 -72t-26.5 -62t-47.5 -43.5t-71.5 -16.5q-10 0 -24.5 5.5t-30 18.5t-30.5 34.5t-25 52.5q-6 -35 -17.5 -69t-30 -61t-45 -43.5t-63.5 -16.5q-39 0 -65.5 19.5t-42.5 50t-23.5 69t-8.5 76.5l-3 77l56 14l3 -92q1 -25 5 -49.5t13.5 -43.5t25.5 -31
t40 -12q34 0 56 21t34.5 53.5t17 70t4.5 70.5v71l54 20q0 -24 6 -63t18 -76t31.5 -63.5t48.5 -26.5q24 0 41 13t27 35t14.5 49t4.5 56q0 15 -1 35t-2.5 39.5t-3.5 36.5t-3 26l62 15zM575 1216l-491 -197v92l491 198v-93zM576 964l-492 -198v93l491 197z" />
    <glyph glyph-name="uni0020_uni064E_uni0651" unicode="&#xfc60;" horiz-adv-x="651" arabic-form="isolated" 
d="M612 1340q0 -37 -8.5 -72t-26.5 -62t-47.5 -43.5t-71.5 -16.5q-10 0 -24.5 5.5t-30 18.5t-30.5 34.5t-25 52.5q-6 -35 -17.5 -69t-30 -61t-45 -43.5t-63.5 -16.5q-39 0 -65.5 19.5t-42.5 50t-23.5 69t-8.5 76.5l-3 77l56 14l3 -92q1 -25 5 -49.5t13.5 -43.5t25.5 -31
t40 -12q34 0 56 21t34.5 53.5t17 70t4.5 70.5v71l54 20q0 -24 6 -63t18 -76t31.5 -63.5t48.5 -26.5q24 0 41 13t27 35t14.5 49t4.5 56q0 15 -1 35t-2.5 39.5t-3.5 36.5t-3 26l62 15zM517 1712l-491 -198v92l491 197v-91z" />
    <glyph glyph-name="uni0020_uni064F_uni0651" unicode="&#xfc61;" horiz-adv-x="651" arabic-form="isolated" 
d="M615 1000q0 -37 -8.5 -72t-26.5 -62t-47.5 -43.5t-71.5 -16.5q-10 0 -24.5 5.5t-30 18.5t-30.5 34.5t-25 52.5q-6 -35 -17.5 -69t-30 -61t-45 -43.5t-63.5 -16.5q-39 0 -65.5 19.5t-42.5 50t-23.5 69t-8.5 76.5l-3 77l56 14l3 -92q1 -25 5 -49.5t13.5 -43.5t25.5 -31
t40 -12q34 0 56 21t34.5 53.5t17 70t4.5 70.5v71l54 20q0 -24 6 -63t18 -76t31.5 -63.5t48.5 -26.5q24 0 41 13t27 35t14.5 49t4.5 56q0 15 -1 35t-2.5 39.5t-3.5 36.5t-3 26l62 15zM524 1355q-18 7 -32 12t-26.5 10t-26 11t-30.5 15q-53 -77 -145 -150.5t-235 -127.5v103
q47 11 93.5 30.5t88 44.5t76.5 55t61 62q-24 7 -53 18t-56.5 25t-52 29.5t-39.5 31.5q3 73 23.5 125t54 85.5t77.5 49.5t94 18q18 -9 35 -28t30 -43.5t20.5 -52t7.5 -53.5q0 -14 -3.5 -35t-8.5 -44t-12 -45.5t-13 -40.5q20 -10 44 -18.5t47 -13.5zM392 1485q17 30 23.5 55
t6.5 45q0 44 -17 75.5t-54 48.5q-60 0 -93 -31.5t-52 -102.5q17 -17 36 -28.5t41.5 -21t49.5 -18.5t59 -22z" />
    <glyph glyph-name="uni0020_uni0650_uni0651" unicode="&#xfc62;" horiz-adv-x="651" arabic-form="isolated" 
d="M596 1619q0 -37 -8.5 -72t-26.5 -62t-47.5 -43.5t-71.5 -16.5q-10 0 -24.5 5.5t-30 18.5t-30.5 34.5t-25 52.5q-6 -35 -17.5 -69t-30 -61t-45 -43.5t-63.5 -16.5q-39 0 -65.5 19.5t-42.5 50t-23.5 69t-8.5 76.5l-3 77l56 14l3 -92q1 -25 5 -49.5t13.5 -43.5t25.5 -31
t40 -12q34 0 56 21t34.5 53.5t17 70t4.5 70.5v71l54 20q0 -24 6 -63t18 -76t31.5 -63.5t48.5 -26.5q24 0 41 13t27 35t14.5 49t4.5 56q0 15 -1 35t-2.5 39.5t-3.5 36.5t-3 26l62 15zM621 1228l-491 -195v92l491 195v-92z" />
    <glyph glyph-name="uni0020_uni0651_uni0670" unicode="&#xfc63;" horiz-adv-x="651" arabic-form="isolated" 
d="M590 1180q0 -37 -8.5 -72t-26.5 -62t-47.5 -43.5t-71.5 -16.5q-10 0 -24.5 5.5t-30 18.5t-30.5 34.5t-25 52.5q-6 -35 -17.5 -69t-30 -61t-45 -43.5t-63.5 -16.5q-39 0 -65.5 19.5t-42.5 50t-23.5 69t-8.5 76.5l-3 77l56 14l3 -92q1 -25 5 -49.5t13.5 -43.5t25.5 -31
t40 -12q34 0 56 21t34.5 53.5t17 70t4.5 70.5v71l54 20q0 -24 6 -63t18 -76t31.5 -63.5t48.5 -26.5q24 0 41 13t27 35t14.5 49t4.5 56q0 15 -1 35t-2.5 39.5t-3.5 36.5t-3 26l62 15zM260 1397q0 63 -8 113t-22 91.5t-32.5 76.5t-38.5 67l80 73q18 -28 34 -59.5t28 -69
t19.5 -82.5t7.5 -100q0 -9 -1.5 -24t-3.5 -31.5t-4 -31.5t-3 -23h-56z" />
    <glyph glyph-name="uni0621.isol" unicode="&#x621;" horiz-adv-x="769" arabic-form="isolated" 
d="M682 266q-35 -8 -70 -13.5t-73 -13.5t-80.5 -20.5t-92.5 -33t-109 -51t-130 -74.5l-79 165q37 23 70 42.5t65 36.5q-42 38 -64.5 82.5t-22.5 101.5q0 38 12.5 76t33.5 72.5t48.5 64t58.5 51t62.5 34t60.5 12.5q40 0 69.5 -4.5t54 -15t47.5 -28t52 -42.5l-100 -142
q-13 12 -24 19.5t-24.5 12t-31 6.5t-43.5 2q-20 0 -42.5 -10t-41 -26.5t-30.5 -38t-12 -43.5q0 -12 10.5 -24t29 -24t44 -24t54.5 -23q75 24 139 37t128 24z" />
    <glyph glyph-name="uni0622.isol" unicode="&#x622;" horiz-adv-x="720" arabic-form="isolated" 
d="M443 96h-154v1103h154v-1103zM750 1604q-70 -43 -144 -76q-32 -14 -67 -28t-72 -24.5t-74.5 -17t-73.5 -6.5q-38 0 -73.5 2.5t-64.5 6.5q-33 4 -63 10q-10 -30 -12.5 -69t-2.5 -71h-102q0 28 4 65.5t14 78t26.5 79.5t41.5 69q20 -12 53 -21q28 -8 72 -14t107 -6
q31 0 64 5.5t65.5 15t63.5 21.5t58 24q64 29 125 67z" />
    <glyph glyph-name="uni0622.fina" unicode="&#x622;" horiz-adv-x="786" arabic-form="final" 
d="M786 96h-121q-112 0 -185.5 21.5t-117 65t-61.5 110.5t-18 159v747h154v-747q0 -42 10.5 -73t36.5 -51t70 -30t111 -10h121v-192zM750 1604q-70 -43 -144 -76q-32 -14 -67 -28t-72 -24.5t-74.5 -17t-73.5 -6.5q-38 0 -73.5 2.5t-64.5 6.5q-33 4 -63 10q-10 -30 -12.5 -69
t-2.5 -71h-102q0 28 4 65.5t14 78t26.5 79.5t41.5 69q20 -12 53 -21q28 -8 72 -14t107 -6q31 0 64 5.5t65.5 15t63.5 21.5t58 24q64 29 125 67z" />
    <glyph glyph-name="uni0623.isol" unicode="&#x623;" horiz-adv-x="720" arabic-form="isolated" 
d="M437 96h-154v1103h154v-1103zM633 1417q-54 -10 -100 -19.5t-99.5 -27t-122.5 -47t-169 -77.5l-44 118q42 21 77 38t67 31q-38 31 -62 69.5t-24 86.5q0 45 22.5 89t56.5 78t74 55t74 21q39 0 68.5 -8.5t53 -23.5t43 -35t39.5 -43l-76 -84q-12 13 -23.5 25t-26 20.5
t-33.5 13.5t-45 5q-19 0 -41 -10t-40.5 -25.5t-31 -36t-12.5 -41.5q0 -26 37.5 -50.5t93.5 -46.5q63 21 117.5 31.5t107.5 22.5z" />
    <glyph glyph-name="uni0623.fina" unicode="&#x623;" horiz-adv-x="786" arabic-form="final" 
d="M786 96h-121q-112 0 -185.5 21.5t-117 65t-61.5 110.5t-18 159v747h154v-747q0 -42 10.5 -73t36.5 -51t70 -30t111 -10h121v-192zM613 1417q-54 -10 -100 -19.5t-99.5 -27t-122.5 -47t-169 -77.5l-44 118q42 21 77 38t67 31q-38 31 -62 69.5t-24 86.5q0 45 22.5 89
t56.5 78t74 55t74 21q39 0 68.5 -8.5t53 -23.5t43 -35t39.5 -43l-76 -84q-12 13 -23.5 25t-26 20.5t-33.5 13.5t-45 5q-19 0 -41 -10t-40.5 -25.5t-31 -36t-12.5 -41.5q0 -26 37.5 -50.5t93.5 -46.5q63 21 117.5 31.5t107.5 22.5z" />
    <glyph glyph-name="uni0624.isol" unicode="&#x624;" horiz-adv-x="1078" arabic-form="isolated" 
d="M163 -280l2 4q157 60 265 121t177.5 121t107 119t53.5 117q-38 -12 -75 -17t-80 -5q-27 0 -60.5 2t-68 9.5t-67.5 22.5t-58.5 41.5t-41 65.5t-15.5 95q0 42 12.5 91.5t34.5 99.5t51.5 96.5t63 82.5t69.5 57.5t72 21.5q51 0 95 -23t81 -61.5t66 -90.5t49 -110t30.5 -119.5
t10.5 -118.5q0 -70 -8.5 -139.5t-34.5 -137.5t-74.5 -135t-129 -132.5t-196.5 -129.5t-278 -126zM780 408q-7 49 -22 96.5t-37 85t-51.5 60.5t-64.5 23q-26 0 -52.5 -26.5t-47.5 -66t-34.5 -84t-13.5 -80.5q0 -15 17 -24t41 -13.5t51 -5.5t47 -1q48 0 88 9t79 27zM823 1174
q-54 -10 -100 -19.5t-99.5 -27t-122.5 -47t-169 -77.5l-44 118q42 21 77 38t67 31q-38 31 -62 69.5t-24 86.5q0 45 22.5 89t56.5 78t74 55t74 21q39 0 68.5 -8.5t53 -23.5t43 -35t39.5 -43l-76 -84q-12 13 -23.5 25t-26 20.5t-33.5 13.5t-45 5q-19 0 -41 -10t-40.5 -25.5
t-31 -36t-12.5 -41.5q0 -26 37.5 -50.5t93.5 -46.5q63 21 117.5 31.5t107.5 22.5z" />
    <glyph glyph-name="uni0624.fina" unicode="&#x624;" horiz-adv-x="1256" arabic-form="final" 
d="M1256 96h-58t-88.5 1t-98 2t-85.5 4q-24 -72 -70.5 -144.5t-127.5 -143t-201.5 -139t-291.5 -134.5l-54 181q134 51 231.5 101.5t166 100.5t111.5 99t67 98q-78 13 -153.5 35t-134.5 56.5t-95 84.5t-36 118q0 42 12.5 91.5t34.5 99.5t51.5 96.5t63 82.5t69.5 57.5
t72 21.5q52 0 95 -23t78 -61.5t61.5 -90.5t44.5 -110t27 -119.5t9 -118.5v-51q31 -1 76 -1.5l90 -1t82 -0.5h52v-192zM800 300q1 9 1.5 21t0.5 21q0 55 -10.5 113.5t-30.5 107t-50 79.5t-70 31q-26 0 -52.5 -26.5t-47.5 -66t-34.5 -84t-13.5 -80.5q0 -26 25.5 -45t68.5 -33
t98.5 -23t114.5 -15zM823 1174q-54 -10 -100 -19.5t-99.5 -27t-122.5 -47t-169 -77.5l-44 118q42 21 77 38t67 31q-38 31 -62 69.5t-24 86.5q0 45 22.5 89t56.5 78t74 55t74 21q39 0 68.5 -8.5t53 -23.5t43 -35t39.5 -43l-76 -84q-12 13 -23.5 25t-26 20.5t-33.5 13.5t-45 5
q-19 0 -41 -10t-40.5 -25.5t-31 -36t-12.5 -41.5q0 -26 37.5 -50.5t93.5 -46.5q63 21 117.5 31.5t107.5 22.5z" />
    <glyph glyph-name="uni0625.isol" unicode="&#x625;" horiz-adv-x="651" arabic-form="isolated" 
d="M374 96h-154v1460h154v-1460zM561 -447q-31 -6 -57.5 -10.5t-55.5 -11t-62.5 -16.5t-78 -27t-102.5 -43t-135 -63l-44 118q42 21 77 38t67 31q-38 31 -62 69.5t-24 86.5q0 45 22.5 89t56.5 78t74 55t74 21q39 0 68.5 -8.5t53 -23.5t43 -35t39.5 -43l-76 -84
q-12 13 -23.5 25t-26 20.5t-33.5 13.5t-45 5q-19 0 -41 -10t-40.5 -25.5t-31 -36t-12.5 -41.5q0 -26 37.5 -50.5t93.5 -46.5q36 13 66 20.5t56.5 13t51 10t51.5 10.5z" />
    <glyph glyph-name="uni0625.fina" unicode="&#x625;" horiz-adv-x="660" arabic-form="final" 
d="M660 96h-58q-112 0 -185.5 21.5t-117 65t-61.5 110.5t-18 159v1104h154v-1104q0 -42 10.5 -73t36.5 -51t70 -30t111 -10h58v-192zM551 -447q-31 -6 -57.5 -10.5t-55.5 -11t-62.5 -16.5t-78 -27t-102.5 -43t-135 -63l-44 118q42 21 77 38t67 31q-38 31 -62 69.5t-24 86.5
q0 45 22.5 89t56.5 78t74 55t74 21q39 0 68.5 -8.5t53 -23.5t43 -35t39.5 -43l-76 -84q-12 13 -23.5 25t-26 20.5t-33.5 13.5t-45 5q-19 0 -41 -10t-40.5 -25.5t-31 -36t-12.5 -41.5q0 -26 37.5 -50.5t93.5 -46.5q36 13 66 20.5t56.5 13t51 10t51.5 10.5z" />
    <glyph glyph-name="uni0626.isol" unicode="&#x626;" horiz-adv-x="1793" arabic-form="isolated" 
d="M1560 512q-38 61 -76.5 88t-79.5 27q-35 0 -71.5 -10.5t-71.5 -27.5t-66 -40t-54.5 -48t-37 -50.5t-13.5 -48.5q0 -10 5 -18t22 -16.5t48 -19t84 -25.5q93 -27 150.5 -53t90 -58.5t43.5 -74.5t11 -101q0 -64 -47.5 -117.5t-126 -95.5t-178.5 -73.5t-205 -52.5
t-206.5 -31.5t-182.5 -10.5q-235 0 -359.5 98.5t-124.5 281.5q0 71 17.5 141t43 134t54.5 119.5t53 97.5l126 -59q-20 -37 -43.5 -82t-43.5 -99t-33.5 -117t-13.5 -135q0 -91 79.5 -139.5t244.5 -48.5q67 0 151.5 5t172 15.5t170.5 26.5t148 37t104.5 47t39.5 58
q0 15 -5.5 26.5t-24.5 22.5t-54 23t-93 29q-90 25 -144 50t-83 55t-38 68.5t-9 91.5q0 42 20.5 90t55.5 94.5t82 89t99.5 75t107 52t106.5 19.5q75 0 147.5 -49t138.5 -155zM1023 1065q-54 -10 -100 -19.5t-99.5 -27t-122.5 -47t-169 -77.5l-44 118q42 21 77 38t67 31
q-38 31 -62 69.5t-24 86.5q0 45 22.5 89t56.5 78t74 55t74 21q39 0 68.5 -8.5t53 -23.5t43 -35t39.5 -43l-76 -84q-12 13 -23.5 25t-26 20.5t-33.5 13.5t-45 5q-19 0 -41 -10t-40.5 -25.5t-31 -36t-12.5 -41.5q0 -26 37.5 -50.5t93.5 -46.5q63 21 117.5 31.5t107.5 22.5z
" />
    <glyph glyph-name="uni0626.fina" unicode="&#x626;" horiz-adv-x="1675" arabic-form="final" 
d="M1675 96q-63 0 -113 5.5t-95 13t-88.5 16.5t-91.5 18q94 -63 142.5 -123.5t48.5 -125.5q0 -48 -39 -87.5t-104 -72t-150.5 -57t-179 -40.5t-189 -24.5t-179.5 -8.5q-113 0 -209 23.5t-165.5 72t-109 121.5t-39.5 172q0 71 17.5 141t43 134t54.5 119.5t53 97.5l126 -59
q-20 -37 -43.5 -82t-43.5 -99t-33.5 -117t-13.5 -135q0 -50 28.5 -87t78 -61.5t115.5 -36.5t141 -12q69 0 146.5 2.5t154 8t146.5 13t123.5 18.5t85 25t31.5 31q0 39 -61.5 90t-198.5 120l92 208q66 0 128 -4.5t124 -10.5t127.5 -10.5t139.5 -4.5v-192zM1323 785
q-54 -10 -100 -19.5t-99.5 -27t-122.5 -47t-169 -77.5l-44 118q42 21 77 38t67 31q-38 31 -62 69.5t-24 86.5q0 45 22.5 89t56.5 78t74 55t74 21q39 0 68.5 -8.5t53 -23.5t43 -35t39.5 -43l-76 -84q-12 13 -23.5 25t-26 20.5t-33.5 13.5t-45 5q-19 0 -41 -10t-40.5 -25.5
t-31 -36t-12.5 -41.5q0 -26 37.5 -50.5t93.5 -46.5q63 21 117.5 31.5t107.5 22.5z" />
    <glyph glyph-name="uni0626.init" unicode="&#x626;" horiz-adv-x="704" arabic-form="initial" 
d="M369 426q0 66 -23.5 164t-68.5 242l160 14q25 -79 42 -138.5t27.5 -107.5t15 -89.5t4.5 -84.5q0 -66 -32 -126t-90.5 -105.5t-140 -72t-181.5 -26.5h-82q-36 0 -70 12v180h70h82q65 0 118 11.5t90.5 30.5t58 44t20.5 52zM523 1254q-54 -10 -100 -19.5t-99.5 -27
t-122.5 -47t-169 -77.5l-44 118q42 21 77 38t67 31q-38 31 -62 69.5t-24 86.5q0 45 22.5 89t56.5 78t74 55t74 21q39 0 68.5 -8.5t53 -23.5t43 -35t39.5 -43l-76 -84q-12 13 -23.5 25t-26 20.5t-33.5 13.5t-45 5q-19 0 -41 -10t-40.5 -25.5t-31 -36t-12.5 -41.5
q0 -26 37.5 -50.5t93.5 -46.5q63 21 117.5 31.5t107.5 22.5z" />
    <glyph glyph-name="uni0626.medi" unicode="&#x626;" horiz-adv-x="704" arabic-form="medial" 
d="M704 96q-73 0 -129.5 7t-100 21t-75 34t-53.5 47q-48 -53 -124.5 -81t-185.5 -28h-36q-36 0 -70 12v180h70h36q125 0 184.5 45t59.5 119v222h154v-222q0 -38 10 -68.5t39.5 -51.5t82 -32.5t138.5 -11.5v-192zM523 1065q-54 -10 -100 -19.5t-99.5 -27t-122.5 -47
t-169 -77.5l-44 118q42 21 77 38t67 31q-38 31 -62 69.5t-24 86.5q0 45 22.5 89t56.5 78t74 55t74 21q39 0 68.5 -8.5t53 -23.5t43 -35t39.5 -43l-76 -84q-12 13 -23.5 25t-26 20.5t-33.5 13.5t-45 5q-19 0 -41 -10t-40.5 -25.5t-31 -36t-12.5 -41.5q0 -26 37.5 -50.5
t93.5 -46.5q63 21 117.5 31.5t107.5 22.5z" />
    <glyph glyph-name="uni0628.isol" unicode="&#x628;" horiz-adv-x="2208" arabic-form="isolated" 
d="M293 460q0 -55 41.5 -95t114 -65.5t170 -37.5t210.5 -12q95 0 192 6.5t190 17.5t180.5 25t165.5 29t143.5 30.5t114.5 28.5q57 16 83 29.5t26 29.5q0 66 -23.5 164t-68.5 242l160 14q25 -79 42 -138.5t27.5 -107.5t15 -89.5t4.5 -84.5q0 -57 -14.5 -95.5t-42.5 -65.5
t-70 -45.5t-97 -33.5q-53 -15 -123 -31.5t-152.5 -33t-174 -31.5t-188 -26.5t-195.5 -18.5t-195 -7q-145 0 -271.5 23.5t-220 72.5t-147.5 125t-54 181q0 45 8.5 97t21.5 106t29 107t32 100l154 -34q-14 -44 -29.5 -95.5t-28.5 -102.5t-21.5 -97.5t-8.5 -80.5zM1156 -366
h-200v200h200v-200z" />
    <glyph glyph-name="uni0628.fina" unicode="&#x628;" horiz-adv-x="2338" arabic-form="final" 
d="M136 460q0 45 8.5 97t21.5 106t29 107t32 100l154 -34q-14 -44 -29.5 -95.5t-28.5 -102.5t-21.5 -97.5t-8.5 -80.5q0 -55 41.5 -95t114 -65.5t170 -37.5t210.5 -12q145 0 287.5 12.5t269 33.5t230 48t171.5 57q36 16 61.5 46t45 68t33 79.5t25.5 79.5l17 55l137 -55
q-21 -70 -33 -113.5t-18 -70t-7.5 -41t-1.5 -25.5q0 -29 13.5 -54t46.5 -43t89.5 -28.5t142.5 -10.5v-192q-92 0 -161.5 12.5t-120 35.5t-83.5 54.5t-51 70.5q-34 -27 -95.5 -53t-144.5 -49.5t-183 -43.5t-210 -34.5t-227 -22.5t-233 -8q-145 0 -271.5 23.5t-220 72.5
t-147.5 125t-54 181zM1156 -366h-200v200h200v-200z" />
    <glyph glyph-name="uni0628.init" unicode="&#x628;" horiz-adv-x="651" arabic-form="initial" 
d="M369 426q0 66 -23.5 164t-68.5 242l160 14q25 -79 42 -138.5t27.5 -107.5t15 -89.5t4.5 -84.5q0 -66 -32 -126t-90.5 -105.5t-140 -72t-181.5 -26.5h-82q-36 0 -70 12v180h70h82q65 0 118 11.5t90.5 30.5t58 44t20.5 52zM356 -366h-200v200h200v-200z" />
    <glyph glyph-name="uni0628.medi" unicode="&#x628;" horiz-adv-x="704" arabic-form="medial" 
d="M704 96q-73 0 -129.5 7t-100 21t-75 34t-53.5 47q-48 -53 -124.5 -81t-185.5 -28h-36q-36 0 -70 12v180h70h36q125 0 184.5 45t59.5 119v222h154v-222q0 -38 10 -68.5t39.5 -51.5t82 -32.5t138.5 -11.5v-192zM356 -366h-200v200h200v-200z" />
    <glyph glyph-name="uni0629.isol" unicode="&#x629;" horiz-adv-x="1095" arabic-form="isolated" 
d="M437 994q54 -20 116.5 -51.5t124 -72t118 -90t100 -105t69.5 -116.5t26 -126q0 -48 -22.5 -93.5t-61 -85.5t-89 -73.5t-107 -57.5t-115.5 -37.5t-113 -13.5q-77 0 -143.5 25t-115.5 68.5t-76.5 103t-27.5 129.5q0 50 16.5 108.5t43.5 118t61 118t69.5 108t68.5 87
t58 56.5zM467 779q-32 -37 -66 -86t-62.5 -100.5t-46.5 -102.5t-18 -92q0 -29 16 -53.5t44 -42.5t66.5 -28t82.5 -10q57 0 119 13.5t114.5 37t86.5 54t34 64.5q0 49 -34 98.5t-87.5 94.5t-119.5 84.5t-129 68.5zM378 1154h-200v200h200v-200zM673 1154h-200v200h200v-200z
" />
    <glyph glyph-name="uni0629.fina" unicode="&#x629;" horiz-adv-x="1168" arabic-form="final" 
d="M1168 96q-60 0 -118.5 5t-110 28.5t-95 72t-74.5 135.5l-28 -127q-65 3 -134.5 7.5t-136 14.5t-125.5 28t-103.5 48t-70.5 74t-26 106q0 86 35.5 163t98 141.5t148.5 115.5t187 87l-33 146l150 42l165 -726q14 -63 41.5 -97.5t63.5 -50.5t78.5 -18.5t87.5 -2.5v-192z
M657 809q-77 -27 -142.5 -62t-113 -76t-74.5 -87.5t-27 -95.5q0 -25 40 -40.5t104 -24.5t144.5 -13.5t161.5 -7.5zM588 1324h-200v200h200v-200zM883 1324h-200v200h200v-200z" />
    <glyph glyph-name="uni062A.isol" unicode="&#x62a;" horiz-adv-x="2208" arabic-form="isolated" 
d="M293 460q0 -55 41.5 -95t114 -65.5t170 -37.5t210.5 -12q95 0 192 6.5t190 17.5t180.5 25t165.5 29t143.5 30.5t114.5 28.5q57 16 83 29.5t26 29.5q0 66 -23.5 164t-68.5 242l160 14q25 -79 42 -138.5t27.5 -107.5t15 -89.5t4.5 -84.5q0 -57 -14.5 -95.5t-42.5 -65.5
t-70 -45.5t-97 -33.5q-53 -15 -123 -31.5t-152.5 -33t-174 -31.5t-188 -26.5t-195.5 -18.5t-195 -7q-145 0 -271.5 23.5t-220 72.5t-147.5 125t-54 181q0 45 8.5 97t21.5 106t29 107t32 100l154 -34q-14 -44 -29.5 -95.5t-28.5 -102.5t-21.5 -97.5t-8.5 -80.5zM1039 965
h-200v200h200v-200zM1334 965h-200v200h200v-200z" />
    <glyph glyph-name="uni062A.fina" unicode="&#x62a;" horiz-adv-x="2338" arabic-form="final" 
d="M136 460q0 45 8.5 97t21.5 106t29 107t32 100l154 -34q-14 -44 -29.5 -95.5t-28.5 -102.5t-21.5 -97.5t-8.5 -80.5q0 -55 41.5 -95t114 -65.5t170 -37.5t210.5 -12q145 0 287.5 12.5t269 33.5t230 48t171.5 57q36 16 61.5 46t45 68t33 79.5t25.5 79.5l17 55l137 -55
q-21 -70 -33 -113.5t-18 -70t-7.5 -41t-1.5 -25.5q0 -29 13.5 -54t46.5 -43t89.5 -28.5t142.5 -10.5v-192q-92 0 -161.5 12.5t-120 35.5t-83.5 54.5t-51 70.5q-34 -27 -95.5 -53t-144.5 -49.5t-183 -43.5t-210 -34.5t-227 -22.5t-233 -8q-145 0 -271.5 23.5t-220 72.5
t-147.5 125t-54 181zM1119 965h-200v200h200v-200zM1414 965h-200v200h200v-200z" />
    <glyph glyph-name="uni062A.init" unicode="&#x62a;" horiz-adv-x="704" arabic-form="initial" 
d="M369 426q0 66 -23.5 164t-68.5 242l160 14q25 -79 42 -138.5t27.5 -107.5t15 -89.5t4.5 -84.5q0 -66 -32 -126t-90.5 -105.5t-140 -72t-181.5 -26.5h-82q-36 0 -70 12v180h70h82q65 0 118 11.5t90.5 30.5t58 44t20.5 52zM208 1154h-200v200h200v-200zM503 1154h-200v200
h200v-200z" />
    <glyph glyph-name="uni062A.medi" unicode="&#x62a;" horiz-adv-x="704" arabic-form="medial" 
d="M704 96q-73 0 -129.5 7t-100 21t-75 34t-53.5 47q-48 -53 -124.5 -81t-185.5 -28h-36q-36 0 -70 12v180h70h36q125 0 184.5 45t59.5 119v222h154v-222q0 -38 10 -68.5t39.5 -51.5t82 -32.5t138.5 -11.5v-192zM208 965h-200v200h200v-200zM503 965h-200v200h200v-200z" />
    <glyph glyph-name="uni062B.isol" unicode="&#x62b;" horiz-adv-x="2208" arabic-form="isolated" 
d="M293 460q0 -55 41.5 -95t114 -65.5t170 -37.5t210.5 -12q95 0 192 6.5t190 17.5t180.5 25t165.5 29t143.5 30.5t114.5 28.5q57 16 83 29.5t26 29.5q0 66 -23.5 164t-68.5 242l160 14q25 -79 42 -138.5t27.5 -107.5t15 -89.5t4.5 -84.5q0 -57 -14.5 -95.5t-42.5 -65.5
t-70 -45.5t-97 -33.5q-53 -15 -123 -31.5t-152.5 -33t-174 -31.5t-188 -26.5t-195.5 -18.5t-195 -7q-145 0 -271.5 23.5t-220 72.5t-147.5 125t-54 181q0 45 8.5 97t21.5 106t29 107t32 100l154 -34q-14 -44 -29.5 -95.5t-28.5 -102.5t-21.5 -97.5t-8.5 -80.5zM1031 965
h-200v200h200v-200zM1342 965h-200v200h200v-200zM1186 1268h-200v200h200v-200z" />
    <glyph glyph-name="uni062B.fina" unicode="&#x62b;" horiz-adv-x="2338" arabic-form="final" 
d="M136 460q0 45 8.5 97t21.5 106t29 107t32 100l154 -34q-14 -44 -29.5 -95.5t-28.5 -102.5t-21.5 -97.5t-8.5 -80.5q0 -55 41.5 -95t114 -65.5t170 -37.5t210.5 -12q145 0 287.5 12.5t269 33.5t230 48t171.5 57q36 16 61.5 46t45 68t33 79.5t25.5 79.5l17 55l137 -55
q-21 -70 -33 -113.5t-18 -70t-7.5 -41t-1.5 -25.5q0 -29 13.5 -54t46.5 -43t89.5 -28.5t142.5 -10.5v-192q-92 0 -161.5 12.5t-120 35.5t-83.5 54.5t-51 70.5q-34 -27 -95.5 -53t-144.5 -49.5t-183 -43.5t-210 -34.5t-227 -22.5t-233 -8q-145 0 -271.5 23.5t-220 72.5
t-147.5 125t-54 181zM1111 965h-200v200h200v-200zM1422 965h-200v200h200v-200zM1266 1268h-200v200h200v-200z" />
    <glyph glyph-name="uni062B.init" unicode="&#x62b;" horiz-adv-x="704" arabic-form="initial" 
d="M369 426q0 66 -23.5 164t-68.5 242l160 14q25 -79 42 -138.5t27.5 -107.5t15 -89.5t4.5 -84.5q0 -66 -32 -126t-90.5 -105.5t-140 -72t-181.5 -26.5h-82q-36 0 -70 12v180h70h82q65 0 118 11.5t90.5 30.5t58 44t20.5 52zM200 1154h-200v200h200v-200zM511 1154h-200v200
h200v-200zM355 1457h-200v200h200v-200z" />
    <glyph glyph-name="uni062B.medi" unicode="&#x62b;" horiz-adv-x="704" arabic-form="medial" 
d="M704 96q-73 0 -129.5 7t-100 21t-75 34t-53.5 47q-48 -53 -124.5 -81t-185.5 -28h-36q-36 0 -70 12v180h70h36q125 0 184.5 45t59.5 119v222h154v-222q0 -38 10 -68.5t39.5 -51.5t82 -32.5t138.5 -11.5v-192zM200 965h-200v200h200v-200zM511 965h-200v200h200v-200z
M355 1268h-200v200h200v-200z" />
    <glyph glyph-name="uni062C.isol" unicode="&#x62c;" horiz-adv-x="1508" arabic-form="isolated" 
d="M1304 -318q-38 -12 -94 -28.5t-127.5 -31t-156 -24.5t-180.5 -10q-74 0 -147.5 10.5t-141 35.5t-126 67t-101.5 104.5t-67.5 148.5t-24.5 200q0 77 25 145.5t68 128t101.5 110t126 92.5t141 75.5t146.5 59.5l-258 140q-32 17 -49.5 23.5t-35.5 6.5q-7 0 -18.5 -7
t-19.5 -15l-136 -147l-91 89l116 188q9 15 24 30t34 27t40.5 19.5t43.5 7.5q17 0 34 -2.5t36.5 -8.5t42 -16t51.5 -25l329 -178q28 -15 68.5 -24t84.5 -13.5t86 -5.5t73 -1h144v-192h-129q-45 0 -108.5 -6.5t-137 -20.5t-151.5 -35.5t-152.5 -51.5t-141.5 -69t-117.5 -88
t-80 -107.5t-29.5 -128.5q0 -75 18 -132t49.5 -98.5t74.5 -69t92.5 -44t104 -23.5t109.5 -7q90 0 170 6t146 15t117.5 20t84.5 22zM996 94h-200v200h200v-200z" />
    <glyph glyph-name="uni062C.fina" unicode="&#x62c;" horiz-adv-x="1508" arabic-form="final" 
d="M1304 -318q-38 -12 -94 -28.5t-127.5 -31t-156 -24.5t-180.5 -10q-74 0 -147.5 10.5t-141 35.5t-126 67t-101.5 104.5t-67.5 148.5t-24.5 200q0 77 25 145.5t68 128t101.5 110t126 92.5t141 75.5t146.5 59.5l-258 140q-32 17 -49.5 23.5t-35.5 6.5q-7 0 -18.5 -7
t-19.5 -15l-136 -147l-91 89l116 188q9 15 24 30t34 27t40.5 19.5t43.5 7.5q17 0 34 -2.5t36.5 -8.5t42 -16t51.5 -25l329 -178q28 -15 68.5 -24t84.5 -13.5t86 -5.5t73 -1h144v-192h-154l69 -194q13 -38 31.5 -71t47 -57t69.5 -37.5t100 -13.5v-192q-92 0 -157 23.5
t-110.5 66.5t-75 102.5t-48.5 130.5l-62 229q-74 -10 -159 -29.5t-169 -48.5t-161.5 -69t-137 -91.5t-95 -115t-35.5 -140.5q0 -75 18 -132t49.5 -98.5t74.5 -69t92.5 -44t104 -23.5t109.5 -7q90 0 170 6t146 15t117.5 20t84.5 22zM876 94h-200v200h200v-200z" />
    <glyph glyph-name="uni062C.init" unicode="&#x62c;" horiz-adv-x="1508" arabic-form="initial" 
d="M1365 449h-125q-38 0 -70 -7.5t-60 -20.5t-52.5 -30.5t-47.5 -36.5q-24 -19 -61 -45.5t-84 -55.5t-100.5 -57t-110.5 -50t-114.5 -36t-110.5 -14h-429q-36 0 -70 12v180h70h429q63 0 132.5 23t135 55.5t120.5 68.5t89 62q-14 5 -29 12.5t-26 13.5l-345 202
q-31 18 -49.5 24t-34.5 6q-13 0 -29.5 -7.5t-26.5 -18.5l-130 -143l-96 93l123 184q28 41 73.5 62.5t85.5 21.5q32 0 71.5 -12.5t87.5 -40.5l344 -202q29 -17 62 -27.5t76 -15.5t99.5 -6.5t131.5 -1.5h71v-192zM596 -366h-200v200h200v-200z" />
    <glyph glyph-name="uni062C.medi" unicode="&#x62c;" horiz-adv-x="1539" arabic-form="medial" 
d="M1539 96q-119 0 -197.5 10t-131 37.5t-85.5 76.5t-60 126l-16 43q-30 -23 -70.5 -53.5t-89.5 -63t-104.5 -64.5t-115.5 -56.5t-122 -40t-124 -15.5h-423q-36 0 -70 12v180h70h423q63 0 132.5 23t135 55.5t120.5 68.5t89 62q-14 5 -29 12.5t-26 13.5l-345 202
q-31 18 -49.5 24t-34.5 6q-13 0 -29.5 -7.5t-26.5 -18.5l-130 -143l-96 93l123 184q28 41 73.5 62.5t85.5 21.5q32 0 71.5 -12.5t87.5 -40.5l344 -202q29 -17 62 -27.5t76 -15.5t99.5 -6.5t131.5 -1.5h71v-192h-125q-15 0 -29 -1.5t-28 -3.5l15 -28q18 -35 41.5 -59
t62 -39.5t97 -22.5t146.5 -7v-192zM596 -366h-200v200h200v-200z" />
    <glyph glyph-name="uni062D.isol" unicode="&#x62d;" horiz-adv-x="1508" arabic-form="isolated" 
d="M1304 -318q-38 -12 -94 -28.5t-127.5 -31t-156 -24.5t-180.5 -10q-74 0 -147.5 10.5t-141 35.5t-126 67t-101.5 104.5t-67.5 148.5t-24.5 200q0 77 25 145.5t68 128t101.5 110t126 92.5t141 75.5t146.5 59.5l-258 140q-32 17 -49.5 23.5t-35.5 6.5q-7 0 -18.5 -7
t-19.5 -15l-136 -147l-91 89l116 188q9 15 24 30t34 27t40.5 19.5t43.5 7.5q17 0 34 -2.5t36.5 -8.5t42 -16t51.5 -25l329 -178q28 -15 68.5 -24t84.5 -13.5t86 -5.5t73 -1h144v-192h-129q-45 0 -108.5 -6.5t-137 -20.5t-151.5 -35.5t-152.5 -51.5t-141.5 -69t-117.5 -88
t-80 -107.5t-29.5 -128.5q0 -75 18 -132t49.5 -98.5t74.5 -69t92.5 -44t104 -23.5t109.5 -7q90 0 170 6t146 15t117.5 20t84.5 22z" />
    <glyph glyph-name="uni062D.fina" unicode="&#x62d;" horiz-adv-x="1508" arabic-form="final" 
d="M1304 -318q-38 -12 -94 -28.5t-127.5 -31t-156 -24.5t-180.5 -10q-74 0 -147.5 10.5t-141 35.5t-126 67t-101.5 104.5t-67.5 148.5t-24.5 200q0 77 25 145.5t68 128t101.5 110t126 92.5t141 75.5t146.5 59.5l-258 140q-32 17 -49.5 23.5t-35.5 6.5q-7 0 -18.5 -7
t-19.5 -15l-136 -147l-91 89l116 188q9 15 24 30t34 27t40.5 19.5t43.5 7.5q17 0 34 -2.5t36.5 -8.5t42 -16t51.5 -25l329 -178q28 -15 68.5 -24t84.5 -13.5t86 -5.5t73 -1h144v-192h-154l69 -194q13 -38 31.5 -71t47 -57t69.5 -37.5t100 -13.5v-192q-92 0 -157 23.5
t-110.5 66.5t-75 102.5t-48.5 130.5l-62 229q-74 -10 -159 -29.5t-169 -48.5t-161.5 -69t-137 -91.5t-95 -115t-35.5 -140.5q0 -75 18 -132t49.5 -98.5t74.5 -69t92.5 -44t104 -23.5t109.5 -7q90 0 170 6t146 15t117.5 20t84.5 22z" />
    <glyph glyph-name="uni062D.init" unicode="&#x62d;" horiz-adv-x="1508" arabic-form="initial" 
d="M1365 449h-125q-38 0 -70 -7.5t-60 -20.5t-52.5 -30.5t-47.5 -36.5q-24 -19 -61 -45.5t-84 -55.5t-100.5 -57t-110.5 -50t-114.5 -36t-110.5 -14h-429q-36 0 -70 12v180h70h429q63 0 132.5 23t135 55.5t120.5 68.5t89 62q-14 5 -29 12.5t-26 13.5l-345 202
q-31 18 -49.5 24t-34.5 6q-13 0 -29.5 -7.5t-26.5 -18.5l-130 -143l-96 93l123 184q28 41 73.5 62.5t85.5 21.5q32 0 71.5 -12.5t87.5 -40.5l344 -202q29 -17 62 -27.5t76 -15.5t99.5 -6.5t131.5 -1.5h71v-192z" />
    <glyph glyph-name="uni062D.medi" unicode="&#x62d;" horiz-adv-x="1539" arabic-form="medial" 
d="M1539 96q-119 0 -197.5 10t-131 37.5t-85.5 76.5t-60 126l-16 43q-30 -23 -70.5 -53.5t-89.5 -63t-104.5 -64.5t-115.5 -56.5t-122 -40t-124 -15.5h-423q-36 0 -70 12v180h70h423q63 0 132.5 23t135 55.5t120.5 68.5t89 62q-14 5 -29 12.5t-26 13.5l-345 202
q-31 18 -49.5 24t-34.5 6q-13 0 -29.5 -7.5t-26.5 -18.5l-130 -143l-96 93l123 184q28 41 73.5 62.5t85.5 21.5q32 0 71.5 -12.5t87.5 -40.5l344 -202q29 -17 62 -27.5t76 -15.5t99.5 -6.5t131.5 -1.5h71v-192h-125q-15 0 -29 -1.5t-28 -3.5l15 -28q18 -35 41.5 -59
t62 -39.5t97 -22.5t146.5 -7v-192z" />
    <glyph glyph-name="uni062E.isol" unicode="&#x62e;" horiz-adv-x="1508" arabic-form="isolated" 
d="M1304 -318q-38 -12 -94 -28.5t-127.5 -31t-156 -24.5t-180.5 -10q-74 0 -147.5 10.5t-141 35.5t-126 67t-101.5 104.5t-67.5 148.5t-24.5 200q0 77 25 145.5t68 128t101.5 110t126 92.5t141 75.5t146.5 59.5l-258 140q-32 17 -49.5 23.5t-35.5 6.5q-7 0 -18.5 -7
t-19.5 -15l-136 -147l-91 89l116 188q9 15 24 30t34 27t40.5 19.5t43.5 7.5q17 0 34 -2.5t36.5 -8.5t42 -16t51.5 -25l329 -178q28 -15 68.5 -24t84.5 -13.5t86 -5.5t73 -1h144v-192h-129q-45 0 -108.5 -6.5t-137 -20.5t-151.5 -35.5t-152.5 -51.5t-141.5 -69t-117.5 -88
t-80 -107.5t-29.5 -128.5q0 -75 18 -132t49.5 -98.5t74.5 -69t92.5 -44t104 -23.5t109.5 -7q90 0 170 6t146 15t117.5 20t84.5 22zM856 1324h-200v200h200v-200z" />
    <glyph glyph-name="uni062E.fina" unicode="&#x62e;" horiz-adv-x="1508" arabic-form="final" 
d="M1304 -318q-38 -12 -94 -28.5t-127.5 -31t-156 -24.5t-180.5 -10q-74 0 -147.5 10.5t-141 35.5t-126 67t-101.5 104.5t-67.5 148.5t-24.5 200q0 77 25 145.5t68 128t101.5 110t126 92.5t141 75.5t146.5 59.5l-258 140q-32 17 -49.5 23.5t-35.5 6.5q-7 0 -18.5 -7
t-19.5 -15l-136 -147l-91 89l116 188q9 15 24 30t34 27t40.5 19.5t43.5 7.5q17 0 34 -2.5t36.5 -8.5t42 -16t51.5 -25l329 -178q28 -15 68.5 -24t84.5 -13.5t86 -5.5t73 -1h144v-192h-154l69 -194q13 -38 31.5 -71t47 -57t69.5 -37.5t100 -13.5v-192q-92 0 -157 23.5
t-110.5 66.5t-75 102.5t-48.5 130.5l-62 229q-74 -10 -159 -29.5t-169 -48.5t-161.5 -69t-137 -91.5t-95 -115t-35.5 -140.5q0 -75 18 -132t49.5 -98.5t74.5 -69t92.5 -44t104 -23.5t109.5 -7q90 0 170 6t146 15t117.5 20t84.5 22zM856 1324h-200v200h200v-200z" />
    <glyph glyph-name="uni062E.init" unicode="&#x62e;" horiz-adv-x="1508" arabic-form="initial" 
d="M1365 449h-125q-38 0 -70 -7.5t-60 -20.5t-52.5 -30.5t-47.5 -36.5q-24 -19 -61 -45.5t-84 -55.5t-100.5 -57t-110.5 -50t-114.5 -36t-110.5 -14h-429q-36 0 -70 12v180h70h429q63 0 132.5 23t135 55.5t120.5 68.5t89 62q-14 5 -29 12.5t-26 13.5l-345 202
q-31 18 -49.5 24t-34.5 6q-13 0 -29.5 -7.5t-26.5 -18.5l-130 -143l-96 93l123 184q28 41 73.5 62.5t85.5 21.5q32 0 71.5 -12.5t87.5 -40.5l344 -202q29 -17 62 -27.5t76 -15.5t99.5 -6.5t131.5 -1.5h71v-192zM796 1244h-200v200h200v-200z" />
    <glyph glyph-name="uni062E.medi" unicode="&#x62e;" horiz-adv-x="1539" arabic-form="medial" 
d="M1539 96q-119 0 -197.5 10t-131 37.5t-85.5 76.5t-60 126l-16 43q-30 -23 -70.5 -53.5t-89.5 -63t-104.5 -64.5t-115.5 -56.5t-122 -40t-124 -15.5h-423q-36 0 -70 12v180h70h423q63 0 132.5 23t135 55.5t120.5 68.5t89 62q-14 5 -29 12.5t-26 13.5l-345 202
q-31 18 -49.5 24t-34.5 6q-13 0 -29.5 -7.5t-26.5 -18.5l-130 -143l-96 93l123 184q28 41 73.5 62.5t85.5 21.5q32 0 71.5 -12.5t87.5 -40.5l344 -202q29 -17 62 -27.5t76 -15.5t99.5 -6.5t131.5 -1.5h71v-192h-125q-15 0 -29 -1.5t-28 -3.5l15 -28q18 -35 41.5 -59
t62 -39.5t97 -22.5t146.5 -7v-192zM796 1244h-200v200h200v-200z" />
    <glyph glyph-name="uni062F.isol" unicode="&#x62f;" horiz-adv-x="1151" arabic-form="isolated" 
d="M263 288q59 -35 177 -35q42 0 91 4t98.5 11.5t95 18.5t81 24t56.5 28t21 32q0 63 -13 122t-34.5 113t-49 101.5t-55.5 87.5q-67 94 -151 173l98 148q100 -93 179 -209q34 -50 66 -109t57.5 -126.5t41 -143t15.5 -157.5q0 -44 -28.5 -84.5t-76 -75t-109 -63t-128 -48
t-133 -30.5t-122.5 -11q-81 0 -143 16.5t-110 43.5z" />
    <glyph glyph-name="uni062F.fina" unicode="&#x62f;" horiz-adv-x="1349" arabic-form="final" 
d="M1349 96q-62 0 -110.5 6t-89 21.5t-74.5 41.5t-66 66q-49 -32 -118.5 -63t-147 -55t-156.5 -39t-147 -15q-81 0 -143 16.5t-110 43.5l76 169q59 -35 177 -35q59 0 126 11.5t132.5 29.5t123 41.5t96.5 47.5q-45 90 -85.5 172.5t-78 160.5t-73.5 152.5t-73 148.5l138 86
l297 -609q31 -63 59.5 -103t63 -63t78 -31.5t105.5 -8.5v-192z" />
    <glyph glyph-name="uni0630.isol" unicode="&#x630;" horiz-adv-x="1151" arabic-form="isolated" 
d="M263 288q59 -35 177 -35q42 0 91 4t98.5 11.5t95 18.5t81 24t56.5 28t21 32q0 63 -13 122t-34.5 113t-49 101.5t-55.5 87.5q-67 94 -151 173l98 148q100 -93 179 -209q34 -50 66 -109t57.5 -126.5t41 -143t15.5 -157.5q0 -44 -28.5 -84.5t-76 -75t-109 -63t-128 -48
t-133 -30.5t-122.5 -11q-81 0 -143 16.5t-110 43.5zM598 1324h-200v200h200v-200z" />
    <glyph glyph-name="uni0630.fina" unicode="&#x630;" horiz-adv-x="1349" arabic-form="final" 
d="M1349 96q-62 0 -110.5 6t-89 21.5t-74.5 41.5t-66 66q-49 -32 -118.5 -63t-147 -55t-156.5 -39t-147 -15q-81 0 -143 16.5t-110 43.5l76 169q59 -35 177 -35q59 0 126 11.5t132.5 29.5t123 41.5t96.5 47.5q-45 90 -85.5 172.5t-78 160.5t-73.5 152.5t-73 148.5l138 86
l297 -609q31 -63 59.5 -103t63 -63t78 -31.5t105.5 -8.5v-192zM598 1324h-200v200h200v-200z" />
    <glyph glyph-name="uni0631.isol" unicode="&#x631;" horiz-adv-x="1078" arabic-form="isolated" 
d="M82 -276q88 31 174 68t164 78t144 86.5t114 94t75.5 99t27.5 103.5q0 47 -10 101.5t-26.5 106.5t-36.5 96.5t-41 71.5l121 119q27 -35 54 -93t49 -126t36 -140t14 -136q0 -77 -31.5 -150t-87 -140t-132 -127.5t-166 -114t-189.5 -99t-203 -81.5z" />
    <glyph glyph-name="uni0631.fina" unicode="&#x631;" horiz-adv-x="1256" arabic-form="final" 
d="M1256 96q-118 0 -191 20t-122 57q-15 -76 -57 -142t-103 -123.5t-137 -107t-159 -93.5t-169 -83t-167 -74l-65 171q79 39 163 77.5t163 79t149.5 85t123 94t83.5 106.5t31 123q0 50 -5 100t-13.5 96.5t-20 88.5t-24.5 76l149 58l64 -224q12 -42 28 -77t48 -61t86.5 -40.5
t144.5 -14.5v-192z" />
    <glyph glyph-name="uni0632.isol" unicode="&#x632;" horiz-adv-x="1078" arabic-form="isolated" 
d="M82 -276q88 31 174 68t164 78t144 86.5t114 94t75.5 99t27.5 103.5q0 47 -10 101.5t-26.5 106.5t-36.5 96.5t-41 71.5l121 119q27 -35 54 -93t49 -126t36 -140t14 -136q0 -77 -31.5 -150t-87 -140t-132 -127.5t-166 -114t-189.5 -99t-203 -81.5zM678 1075h-200v200h200
v-200z" />
    <glyph glyph-name="uni0632.fina" unicode="&#x632;" horiz-adv-x="1256" arabic-form="final" 
d="M1256 96q-118 0 -191 20t-122 57q-15 -76 -57 -142t-103 -123.5t-137 -107t-159 -93.5t-169 -83t-167 -74l-65 171q79 39 163 77.5t163 79t149.5 85t123 94t83.5 106.5t31 123q0 50 -5 100t-13.5 96.5t-20 88.5t-24.5 76l149 58l64 -224q12 -42 28 -77t48 -61t86.5 -40.5
t144.5 -14.5v-192zM678 1075h-200v200h200v-200z" />
    <glyph glyph-name="uni0633.isol" unicode="&#x633;" horiz-adv-x="2564" arabic-form="isolated" 
d="M2440 426q0 -66 -31 -126t-83 -105t-120 -72t-141 -27q-36 0 -72 7t-70.5 22t-64.5 38.5t-54 57.5q-42 -56 -103.5 -90.5t-140.5 -34.5q-49 0 -87 4.5t-71 20.5v-12q0 -92 -34.5 -164.5t-94 -126.5t-140 -92t-173 -62t-192 -34.5t-197.5 -10.5q-113 0 -198 28.5t-142 79
t-86 120t-29 152.5q0 71 17 141t42.5 134t54 119.5t52.5 97.5l126 -59q-20 -37 -43.5 -82t-43 -99t-32.5 -117t-13 -135q0 -41 18 -75.5t55 -59.5t92 -39t130 -14q80 0 161 6.5t156 21t140.5 37.5t113.5 56t76 77t28 100q0 51 -12.5 99t-33 93t-45.5 87t-50 80l134 98
l65 -101q22 -34 46.5 -66t54.5 -56.5t68 -39.5t87 -15q44 0 77.5 18.5t56.5 44t35 53.5t12 48v146h154v-155q0 -43 15.5 -72.5t40 -48t54.5 -26.5t60 -8q43 0 82.5 11t69.5 30t48 44t18 53q0 66 -23.5 164t-68.5 242l160 14q25 -79 42 -138.5t27.5 -107.5t15 -89.5
t4.5 -84.5z" />
    <glyph glyph-name="uni0633.fina" unicode="&#x633;" horiz-adv-x="2676" arabic-form="final" 
d="M2676 96h-106q-36 0 -72.5 7.5t-70.5 23.5t-64.5 40.5t-53.5 58.5q-42 -56 -103.5 -93t-140.5 -37q-36 0 -72 7t-70.5 22t-64.5 38.5t-54 57.5q-42 -56 -103.5 -90.5t-140.5 -34.5q-49 0 -87 4.5t-71 20.5v-12q0 -92 -34.5 -164.5t-94 -126.5t-140 -92t-173 -62
t-192 -34.5t-197.5 -10.5q-113 0 -198 28.5t-142 79t-86 120t-29 152.5q0 71 17 141t42.5 134t54 119.5t52.5 97.5l126 -59q-20 -37 -43.5 -82t-43 -99t-32.5 -117t-13 -135q0 -41 18 -75.5t55 -59.5t92 -39t130 -14q80 0 161 6.5t156 21t140.5 37.5t113.5 56t76 77t28 100
q0 51 -12.5 99t-33 93t-45.5 87t-50 80l134 98l65 -101q22 -34 46.5 -66t54.5 -56.5t68 -39.5t87 -15q44 0 77.5 18.5t56.5 44t35 53.5t12 48v146h154v-155q0 -43 15.5 -72.5t40 -48t54.5 -26.5t60 -8q44 0 77.5 19t56.5 46t35 55.5t12 48.5v141h154v-150q0 -43 15.5 -73.5
t40 -49.5t54.5 -28t60 -9h106v-192z" />
    </font>
</defs>
</svg>
